  0
SECTION
  2
HEADER
  9
$ACADVER
  1
AC1015
  9
$ACADMAINTVER
 70
     6
  9
$DWGCODEPAGE
  3
ANSI_932
  9
$INSBASE
 10
0.0
 20
0.0
 30
0.0
  9
$EXTMIN
 10
-165.2865334794732
 20
-13.06001164679978
 30
0.0
  9
$EXTMAX
 10
73.87
 20
187.8883516524953
 30
0.0
  9
$LIMMIN
 10
-165.2865334794732
 20
-13.06001164679978
  9
$LIMMAX
 10
73.87
 20
187.8883516524953
  9
$ORTHOMODE
 70
     0
  9
$REGENMODE
 70
     1
  9
$FILLMODE
 70
     1
  9
$QTEXTMODE
 70
     0
  9
$MIRRTEXT
 70
     1
  9
$LTSCALE
 40
1.0
  9
$ATTMODE
 70
     1
  9
$TEXTSIZE
 40
2.5
  9
$TRACEWID
 40
1.0
  9
$TEXTSTYLE
  7
Standard
  9
$CLAYER
  8
0
  9
$CELTYPE
  6
ByLayer
  9
$CECOLOR
 62
   256
  9
$CELTSCALE
 40
1.0
  9
$DISPSILH
 70
     0
  9
$DIMSCALE
 40
1.0
  9
$DIMASZ
 40
2.5
  9
$DIMEXO
 40
0.625
  9
$DIMDLI
 40
3.75
  9
$DIMRND
 40
0.0
  9
$DIMDLE
 40
0.0
  9
$DIMEXE
 40
1.25
  9
$DIMTP
 40
0.0
  9
$DIMTM
 40
0.0
  9
$DIMTXT
 40
2.5
  9
$DIMCEN
 40
2.5
  9
$DIMTSZ
 40
0.0
  9
$DIMTOL
 70
     0
  9
$DIMLIM
 70
     0
  9
$DIMTIH
 70
     0
  9
$DIMTOH
 70
     0
  9
$DIMSE1
 70
     0
  9
$DIMSE2
 70
     0
  9
$DIMTAD
 70
     1
  9
$DIMZIN
 70
     8
  9
$DIMBLK
  1

  9
$DIMASO
 70
     1
  9
$DIMSHO
 70
     1
  9
$DIMPOST
  1

  9
$DIMAPOST
  1

  9
$DIMALT
 70
     0
  9
$DIMALTD
 70
     3
  9
$DIMALTF
 40
0.03937007874016
  9
$DIMLFAC
 40
1.0
  9
$DIMTOFL
 70
     1
  9
$DIMTVP
 40
0.0
  9
$DIMTIX
 70
     0
  9
$DIMSOXD
 70
     0
  9
$DIMSAH
 70
     0
  9
$DIMBLK1
  1

  9
$DIMBLK2
  1

  9
$DIMSTYLE
  2
ISO-25
  9
$DIMCLRD
 70
     0
  9
$DIMCLRE
 70
     0
  9
$DIMCLRT
 70
     0
  9
$DIMTFAC
 40
1.0
  9
$DIMGAP
 40
0.625
  9
$DIMJUST
 70
     0
  9
$DIMSD1
 70
     0
  9
$DIMSD2
 70
     0
  9
$DIMTOLJ
 70
     0
  9
$DIMTZIN
 70
     8
  9
$DIMALTZ
 70
     0
  9
$DIMALTTZ
 70
     0
  9
$DIMUPT
 70
     0
  9
$DIMDEC
 70
     2
  9
$DIMTDEC
 70
     2
  9
$DIMALTU
 70
     2
  9
$DIMALTTD
 70
     3
  9
$DIMTXSTY
  7
Standard
  9
$DIMAUNIT
 70
     0
  9
$DIMADEC
 70
     0
  9
$DIMALTRND
 40
0.0
  9
$DIMAZIN
 70
     0
  9
$DIMDSEP
 70
    44
  9
$DIMATFIT
 70
     3
  9
$DIMFRAC
 70
     0
  9
$DIMLDRBLK
  1

  9
$DIMLUNIT
 70
     2
  9
$DIMLWD
 70
    -2
  9
$DIMLWE
 70
    -2
  9
$DIMTMOVE
 70
     0
  9
$LUNITS
 70
     2
  9
$LUPREC
 70
     4
  9
$SKETCHINC
 40
1.0
  9
$FILLETRAD
 40
10.0
  9
$AUNITS
 70
     0
  9
$AUPREC
 70
     0
  9
$MENU
  1
.
  9
$ELEVATION
 40
0.0
  9
$PELEVATION
 40
0.0
  9
$THICKNESS
 40
0.0
  9
$LIMCHECK
 70
     0
  9
$CHAMFERA
 40
10.0
  9
$CHAMFERB
 40
10.0
  9
$CHAMFERC
 40
20.0
  9
$CHAMFERD
 40
0.0
  9
$SKPOLY
 70
     0
  9
$TDCREATE
 40
2456443.756546817
  9
$TDUCREATE
 40
2456443.381546817
  9
$TDUPDATE
 40
2456443.756546829
  9
$TDUUPDATE
 40
2456443.381546829
  9
$TDINDWG
 40
0.0000000116
  9
$TDUSRTIMER
 40
0.0000000116
  9
$USRTIMER
 70
     1
  9
$ANGBASE
 50
0.0
  9
$ANGDIR
 70
     0
  9
$PDMODE
 70
     0
  9
$PDSIZE
 40
0.0
  9
$PLINEWID
 40
0.0
  9
$SPLFRAME
 70
     0
  9
$SPLINETYPE
 70
     6
  9
$SPLINESEGS
 70
     8
  9
$HANDSEED
  5
28D
  9
$SURFTAB1
 70
     6
  9
$SURFTAB2
 70
     6
  9
$SURFTYPE
 70
     6
  9
$SURFU
 70
     6
  9
$SURFV
 70
     6
  9
$UCSBASE
  2

  9
$UCSNAME
  2

  9
$UCSORG
 10
0.0
 20
0.0
 30
0.0
  9
$UCSXDIR
 10
1.0
 20
0.0
 30
0.0
  9
$UCSYDIR
 10
0.0
 20
1.0
 30
0.0
  9
$UCSORTHOREF
  2

  9
$UCSORTHOVIEW
 70
     0
  9
$UCSORGTOP
 10
0.0
 20
0.0
 30
0.0
  9
$UCSORGBOTTOM
 10
0.0
 20
0.0
 30
0.0
  9
$UCSORGLEFT
 10
0.0
 20
0.0
 30
0.0
  9
$UCSORGRIGHT
 10
0.0
 20
0.0
 30
0.0
  9
$UCSORGFRONT
 10
0.0
 20
0.0
 30
0.0
  9
$UCSORGBACK
 10
0.0
 20
0.0
 30
0.0
  9
$PUCSBASE
  2

  9
$PUCSNAME
  2

  9
$PUCSORG
 10
0.0
 20
0.0
 30
0.0
  9
$PUCSXDIR
 10
1.0
 20
0.0
 30
0.0
  9
$PUCSYDIR
 10
0.0
 20
1.0
 30
0.0
  9
$PUCSORTHOREF
  2

  9
$PUCSORTHOVIEW
 70
     0
  9
$PUCSORGTOP
 10
0.0
 20
0.0
 30
0.0
  9
$PUCSORGBOTTOM
 10
0.0
 20
0.0
 30
0.0
  9
$PUCSORGLEFT
 10
0.0
 20
0.0
 30
0.0
  9
$PUCSORGRIGHT
 10
0.0
 20
0.0
 30
0.0
  9
$PUCSORGFRONT
 10
0.0
 20
0.0
 30
0.0
  9
$PUCSORGBACK
 10
0.0
 20
0.0
 30
0.0
  9
$USERI1
 70
     0
  9
$USERI2
 70
     0
  9
$USERI3
 70
     0
  9
$USERI4
 70
     0
  9
$USERI5
 70
     0
  9
$USERR1
 40
0.0
  9
$USERR2
 40
0.0
  9
$USERR3
 40
0.0
  9
$USERR4
 40
0.0
  9
$USERR5
 40
0.0
  9
$WORLDVIEW
 70
     1
  9
$SHADEDGE
 70
     3
  9
$SHADEDIF
 70
    70
  9
$TILEMODE
 70
     1
  9
$MAXACTVP
 70
    64
  9
$PINSBASE
 10
0.0
 20
0.0
 30
0.0
  9
$PLIMCHECK
 70
     0
  9
$PEXTMIN
 10
1.000000000000000E+20
 20
1.000000000000000E+20
 30
1.000000000000000E+20
  9
$PEXTMAX
 10
-1.000000000000000E+20
 20
-1.000000000000000E+20
 30
-1.000000000000000E+20
  9
$PLIMMIN
 10
-165.2865334794732
 20
-13.06001164679978
  9
$PLIMMAX
 10
73.87
 20
187.8883516524953
  9
$UNITMODE
 70
     0
  9
$VISRETAIN
 70
     1
  9
$PLINEGEN
 70
     0
  9
$PSLTSCALE
 70
     1
  9
$TREEDEPTH
 70
  3020
  9
$CMLSTYLE
  2
Standard
  9
$CMLJUST
 70
     0
  9
$CMLSCALE
 40
20.0
  9
$PROXYGRAPHICS
 70
     1
  9
$MEASUREMENT
 70
     1
  9
$CELWEIGHT
370
    -1
  9
$ENDCAPS
280
     0
  9
$JOINSTYLE
280
     0
  9
$LWDISPLAY
290
     0
  9
$INSUNITS
 70
     4
  9
$HYPERLINKBASE
  1

  9
$STYLESHEET
  1

  9
$XEDIT
290
     1
  9
$CEPSNTYPE
380
     0
  9
$PSTYLEMODE
290
     1
  9
$FINGERPRINTGUID
  2
{90504E6D-8F1E-4A28-884C-9206C405FBC5}
  9
$VERSIONGUID
  2
{FAEB1C32-E019-11D5-929B-00C0DF256EC4}
  9
$EXTNAMES
290
     1
  9
$PSVPSCALE
 40
0.0
  9
$OLESTARTUP
290
     0
  0
ENDSEC
  0
SECTION
  2
CLASSES
  0
CLASS
  1
ACDBDICTIONARYWDFLT
  2
AcDbDictionaryWithDefault
  3
ObjectDBX Classes
 90
        0
280
     0
281
     0
  0
CLASS
  1
VISUALSTYLE
  2
AcDbVisualStyle
  3
ObjectDBX Classes
 90
     4095
280
     0
281
     0
  0
CLASS
  1
SCALE
  2
AcDbScale
  3
ObjectDBX Classes
 90
     1153
280
     0
281
     0
  0
CLASS
  1
DICTIONARYVAR
  2
AcDbDictionaryVar
  3
ObjectDBX Classes
 90
        0
280
     0
281
     0
  0
CLASS
  1
ACDBPLACEHOLDER
  2
AcDbPlaceHolder
  3
ObjectDBX Classes
 90
        0
280
     0
281
     0
  0
CLASS
  1
LAYOUT
  2
AcDbLayout
  3
ObjectDBX Classes
 90
        0
280
     0
281
     0
  0
ENDSEC
  0
SECTION
  2
TABLES
  0
TABLE
  2
VPORT
  5
8
330
0
100
AcDbSymbolTable
 70
     1
  0
VPORT
  5
29
330
8
100
AcDbSymbolTableRecord
100
AcDbViewportTableRecord
  2
*Active
 70
     0
 10
0.0
 20
0.0
 11
1.0
 21
1.0
 12
344.1869158878504
 22
148.5
 13
0.0
 23
0.0
 14
10.0
 24
10.0
 15
10.0
 25
10.0
 16
0.0
 26
0.0
 36
1.0
 17
0.0
 27
0.0
 37
0.0
 40
297.0
 41
1.972972972850329
 42
50.0
 43
0.0
 44
0.0
 50
0.0
 51
0.0
 71
     0
 72
   100
 73
     1
 74
     3
 75
     0
 76
     0
 77
     0
 78
     0
281
     0
 65
     1
110
0.0
120
0.0
130
0.0
111
1.0
121
0.0
131
0.0
112
0.0
122
1.0
132
0.0
 79
     0
146
0.0
  0
ENDTAB
  0
TABLE
  2
LTYPE
  5
5
330
0
100
AcDbSymbolTable
 70
     5
  0
LTYPE
  5
14
330
5
100
AcDbSymbolTableRecord
100
AcDbLinetypeTableRecord
  2
ByBlock
 70
     0
  3

 72
    65
 73
     0
 40
0.0
  0
LTYPE
  5
15
330
5
100
AcDbSymbolTableRecord
100
AcDbLinetypeTableRecord
  2
ByLayer
 70
     0
  3

 72
    65
 73
     0
 40
0.0
  0
LTYPE
  5
16
330
5
100
AcDbSymbolTableRecord
100
AcDbLinetypeTableRecord
  2
Continuous
 70
     0
  3
Solid line
 72
    65
 73
     0
 40
0.0
  0
LTYPE
  5
3B
330
5
100
AcDbSymbolTableRecord
100
AcDbLinetypeTableRecord
  2
CONTINOUS
 70
     0
  3
______________________________
 72
    65
 73
     0
 40
0.0
  0
LTYPE
  5
3C
330
5
100
AcDbSymbolTableRecord
100
AcDbLinetypeTableRecord
  2
DASHED
 70
     0
  3
__ __ __ __ __ __ __ __ __ __ __ __ __ __ __ __
 72
    65
 73
     2
 40
4.5
 49
3.0
 74
     0
 49
-1.5
 74
     0
  0
LTYPE
  5
3D
330
5
100
AcDbSymbolTableRecord
100
AcDbLinetypeTableRecord
  2
PHANTOM
 70
     0
  3
______  __  __  ______  __  __  _____
 72
    65
 73
     6
 40
15.0
 49
7.5
 74
     0
 49
-1.5
 74
     0
 49
1.5
 74
     0
 49
-1.5
 74
     0
 49
1.5
 74
     0
 49
-1.5
 74
     0
  0
LTYPE
  5
3E
330
5
100
AcDbSymbolTableRecord
100
AcDbLinetypeTableRecord
  2
CENTER
 70
     0
  3
____ _ ____ _ ____ _ ____ _ ____ _ ____
 72
    65
 73
     4
 40
12.0
 49
7.5
 74
     0
 49
-1.5
 74
     0
 49
1.5
 74
     0
 49
-1.5
 74
     0
  0
ENDTAB
  0
TABLE
  2
LAYER
  5
2
330
0
100
AcDbSymbolTable
 70
     2
  0
LAYER
  5
10
330
2
100
AcDbSymbolTableRecord
100
AcDbLayerTableRecord
  2
0
 70
     0
 62
     7
  6
Continuous
370
    -3
390
F
  0
LAYER
  5
158
330
2
100
AcDbSymbolTableRecord
100
AcDbLayerTableRecord
  2
Defpoints
 70
     0
 62
     7
  6
Continuous
290
     0
370
    -3
390
F
  0
ENDTAB
  0
TABLE
  2
STYLE
  5
3
330
0
100
AcDbSymbolTable
 70
     1
  0
STYLE
  5
11
330
3
100
AcDbSymbolTableRecord
100
AcDbTextStyleTableRecord
  2
Standard
 70
     0
 40
0.0
 41
1.0
 50
0.0
 71
     0
 42
2.5
  3
ROMANS
  4
EXTFONT
  0
ENDTAB
  0
TABLE
  2
VIEW
  5
6
330
0
100
AcDbSymbolTable
 70
     0
  0
ENDTAB
  0
TABLE
  2
UCS
  5
7
330
0
100
AcDbSymbolTable
 70
     0
  0
ENDTAB
  0
TABLE
  2
APPID
  5
9
330
0
100
AcDbSymbolTable
 70
     1
  0
APPID
  5
12
330
9
100
AcDbSymbolTableRecord
100
AcDbRegAppTableRecord
  2
ACAD
 70
     0
  0
ENDTAB
  0
TABLE
  2
DIMSTYLE
  5
A
330
0
100
AcDbSymbolTable
 70
     1
100
AcDbDimStyleTable
  0
DIMSTYLE
105
27
102
{ACAD_REACTORS
330
151
330
164
330
173
330
182
330
18F
330
19C
330
1C2
330
1CF
330
1DF
330
1EF
330
1FC
330
20B
330
217
330
22C
330
240
330
24D
102
}
330
A
100
AcDbSymbolTableRecord
100
AcDbDimStyleTableRecord
  2
ISO-25
 70
     0
 41
2.5
 42
0.625
 43
3.75
 44
1.25
 73
     0
 74
     0
 77
     1
 78
     8
140
2.5
141
2.5
143
0.03937007874016
147
0.625
171
     3
172
     1
271
     2
272
     2
274
     3
278
    44
283
     0
284
     8
340
11
  0
ENDTAB
  0
TABLE
  2
BLOCK_RECORD
  5
1
330
0
100
AcDbSymbolTable
 70
    24
  0
BLOCK_RECORD
  5
1F
330
1
100
AcDbSymbolTableRecord
100
AcDbBlockTableRecord
  2
*Model_Space
340
22
  0
BLOCK_RECORD
  5
1B
330
1
100
AcDbSymbolTableRecord
100
AcDbBlockTableRecord
  2
*Paper_Space
340
1E
  0
BLOCK_RECORD
  5
23
330
1
100
AcDbSymbolTableRecord
100
AcDbBlockTableRecord
  2
*Paper_Space0
340
26
  0
BLOCK_RECORD
  5
152
330
1
100
AcDbSymbolTableRecord
100
AcDbBlockTableRecord
  2
_OPEN
340
0
102
{BLKREFS
331
15D
331
15C
331
16C
331
16B
331
17B
331
17A
331
188
331
187
331
195
331
194
331
1A2
331
1A1
331
1C8
331
1C7
331
1D8
331
1D7
331
1E8
331
1E7
331
1F5
331
1F4
331
204
331
203
331
210
331
20F
331
21C
331
21B
331
232
331
231
331
246
331
245
331
255
331
254
102
}
  0
BLOCK_RECORD
  5
159
330
1
100
AcDbSymbolTableRecord
100
AcDbBlockTableRecord
  2
*D2
340
0
  0
BLOCK_RECORD
  5
165
330
1
100
AcDbSymbolTableRecord
100
AcDbBlockTableRecord
  2
*D3
340
0
  0
BLOCK_RECORD
  5
174
330
1
100
AcDbSymbolTableRecord
100
AcDbBlockTableRecord
  2
*D4
340
0
  0
BLOCK_RECORD
  5
183
330
1
100
AcDbSymbolTableRecord
100
AcDbBlockTableRecord
  2
*D5
340
0
  0
BLOCK_RECORD
  5
190
330
1
100
AcDbSymbolTableRecord
100
AcDbBlockTableRecord
  2
*D6
340
0
  0
BLOCK_RECORD
  5
19D
330
1
100
AcDbSymbolTableRecord
100
AcDbBlockTableRecord
  2
*D7
340
0
  0
BLOCK_RECORD
  5
1A9
330
1
100
AcDbSymbolTableRecord
100
AcDbBlockTableRecord
  2
DIM0001
340
0
102
{BLKREFS
331
1AF
102
}
  0
BLOCK_RECORD
  5
1B2
330
1
100
AcDbSymbolTableRecord
100
AcDbBlockTableRecord
  2
SYM0001
340
0
102
{BLKREFS
331
1B8
102
}
  0
BLOCK_RECORD
  5
1BB
330
1
100
AcDbSymbolTableRecord
100
AcDbBlockTableRecord
  2
SYM0002
340
0
102
{BLKREFS
331
1BF
102
}
  0
BLOCK_RECORD
  5
1C3
330
1
100
AcDbSymbolTableRecord
100
AcDbBlockTableRecord
  2
*D11
340
0
  0
BLOCK_RECORD
  5
1D0
330
1
100
AcDbSymbolTableRecord
100
AcDbBlockTableRecord
  2
*D12
340
0
  0
BLOCK_RECORD
  5
1E0
330
1
100
AcDbSymbolTableRecord
100
AcDbBlockTableRecord
  2
*D13
340
0
  0
BLOCK_RECORD
  5
1F0
330
1
100
AcDbSymbolTableRecord
100
AcDbBlockTableRecord
  2
*D14
340
0
  0
BLOCK_RECORD
  5
1FD
330
1
100
AcDbSymbolTableRecord
100
AcDbBlockTableRecord
  2
*D15
340
0
  0
BLOCK_RECORD
  5
20C
330
1
100
AcDbSymbolTableRecord
100
AcDbBlockTableRecord
  2
*D16
340
0
  0
BLOCK_RECORD
  5
218
330
1
100
AcDbSymbolTableRecord
100
AcDbBlockTableRecord
  2
*D17
340
0
  0
BLOCK_RECORD
  5
223
330
1
100
AcDbSymbolTableRecord
100
AcDbBlockTableRecord
  2
DIM0002
340
0
102
{BLKREFS
331
229
102
}
  0
BLOCK_RECORD
  5
22D
330
1
100
AcDbSymbolTableRecord
100
AcDbBlockTableRecord
  2
*D19
340
0
  0
BLOCK_RECORD
  5
239
330
1
100
AcDbSymbolTableRecord
100
AcDbBlockTableRecord
  2
SYM0003
340
0
102
{BLKREFS
331
23D
102
}
  0
BLOCK_RECORD
  5
241
330
1
100
AcDbSymbolTableRecord
100
AcDbBlockTableRecord
  2
*D21
340
0
  0
BLOCK_RECORD
  5
24E
330
1
100
AcDbSymbolTableRecord
100
AcDbBlockTableRecord
  2
*D22
340
0
  0
BLOCK_RECORD
  5
25C
330
1
100
AcDbSymbolTableRecord
100
AcDbBlockTableRecord
  2
SYM0004
340
0
102
{BLKREFS
331
262
102
}
  0
ENDTAB
  0
ENDSEC
  0
SECTION
  2
BLOCKS
  0
BLOCK
  5
20
330
1F
100
AcDbEntity
  8
0
100
AcDbBlockBegin
  2
*Model_Space
 70
     0
 10
0.0
 20
0.0
 30
0.0
  3
*Model_Space
  1

  0
ENDBLK
  5
21
330
1F
100
AcDbEntity
  8
0
100
AcDbBlockEnd
  0
BLOCK
  5
1C
330
1B
100
AcDbEntity
 67
     1
  8
0
100
AcDbBlockBegin
  2
*Paper_Space
 70
     0
 10
0.0
 20
0.0
 30
0.0
  3
*Paper_Space
  1

  0
ENDBLK
  5
1D
330
1B
100
AcDbEntity
 67
     1
  8
0
100
AcDbBlockEnd
  0
BLOCK
  5
24
330
23
100
AcDbEntity
  8
0
100
AcDbBlockBegin
  2
*Paper_Space0
 70
     0
 10
0.0
 20
0.0
 30
0.0
  3
*Paper_Space0
  1

  0
ENDBLK
  5
25
330
23
100
AcDbEntity
  8
0
100
AcDbBlockEnd
  0
BLOCK
  5
153
330
152
100
AcDbEntity
  8
0
100
AcDbBlockBegin
  2
_OPEN
 70
     0
 10
0.0
 20
0.0
 30
0.0
  3
_OPEN
  1

  0
LINE
  5
155
330
152
100
AcDbEntity
  8
0
  6
ByBlock
 62
     0
370
    -2
100
AcDbLine
 10
-1.0
 20
0.166667
 30
0.0
 11
0.0
 21
0.0
 31
0.0
  0
LINE
  5
156
330
152
100
AcDbEntity
  8
0
  6
ByBlock
 62
     0
370
    -2
100
AcDbLine
 10
-1.0
 20
-0.166667
 30
0.0
 11
0.0
 21
0.0
 31
0.0
  0
LINE
  5
157
330
152
100
AcDbEntity
  8
0
  6
ByBlock
 62
     0
370
    -2
100
AcDbLine
 10
0.0
 20
0.0
 30
0.0
 11
-1.0
 21
0.0
 31
0.0
  0
ENDBLK
  5
154
330
152
100
AcDbEntity
  8
0
100
AcDbBlockEnd
  0
BLOCK
  5
162
330
159
100
AcDbEntity
  8
0
100
AcDbBlockBegin
  2
*D2
 70
     1
 10
0.0
 20
0.0
 30
0.0
  3
*D2
  1

  0
LINE
  5
15A
330
159
100
AcDbEntity
  8
0
 62
     0
370
    -2
100
AcDbLine
 10
-19.59999999999999
 20
143.7400000000036
 30
0.0
 11
-19.59999999999999
 21
163.3229982830746
 31
0.0
  0
LINE
  5
15B
330
159
100
AcDbEntity
  8
0
 62
     0
370
    -2
100
AcDbLine
 10
-16.48599999999999
 20
160.3229982830746
 30
0.0
 11
-3.114
 21
160.3229982830746
 31
0.0
  0
INSERT
  5
15C
330
159
100
AcDbEntity
  8
0
 62
     0
370
    -2
100
AcDbBlockReference
  2
_OPEN
 10
-19.59999999999999
 20
160.3229982830746
 30
0.0
 41
3.114
 42
3.114
 43
3.114
 50
180.0
  0
INSERT
  5
15D
330
159
100
AcDbEntity
  8
0
 62
     0
370
    -2
100
AcDbBlockReference
  2
_OPEN
 10
0.0
 20
160.3229982830746
 30
0.0
 41
3.114
 42
3.114
 43
3.114
  0
MTEXT
  5
15E
330
159
100
AcDbEntity
  8
0
 62
     0
100
AcDbMText
 10
-9.798999999999998
 20
163.3229982830746
 30
0.0
 40
4.0
 41
0.0
 71
     5
 72
     1
  1
19.6
 73
     1
 44
1.0
  0
POINT
  5
15F
330
159
100
AcDbEntity
  8
Defpoints
 62
     0
100
AcDbPoint
 10
-19.59999999999999
 20
141.2000000000037
 30
0.0
  0
POINT
  5
160
330
159
100
AcDbEntity
  8
Defpoints
 62
     0
100
AcDbPoint
 10
0.0
 20
160.3219982830745
 30
0.0
  0
POINT
  5
161
330
159
100
AcDbEntity
  8
Defpoints
 62
     0
100
AcDbPoint
 10
0.0
 20
160.3219982830745
 30
0.0
  0
ENDBLK
  5
163
330
159
100
AcDbEntity
  8
0
100
AcDbBlockEnd
  0
BLOCK
  5
171
330
165
100
AcDbEntity
  8
0
100
AcDbBlockBegin
  2
*D3
 70
     1
 10
0.0
 20
0.0
 30
0.0
  3
*D3
  1

  0
LINE
  5
166
330
165
100
AcDbEntity
  8
0
 62
     0
370
    -2
100
AcDbLine
 10
-51.73999999999999
 20
105.6
 30
0.0
 11
-63.47994720400892
 21
105.6
 31
0.0
  0
LINE
  5
167
330
165
100
AcDbEntity
  8
0
 62
     0
370
    -2
100
AcDbLine
 10
-38.13999999999999
 20
109.2000000000037
 30
0.0
 11
-63.47994720400892
 21
109.2000000000037
 31
0.0
  0
LINE
  5
168
330
165
100
AcDbEntity
  8
0
 62
     0
370
    -2
100
AcDbLine
 10
-61.47994720400892
 20
105.6
 30
0.0
 11
-61.47994720400892
 21
109.2000000000037
 31
0.0
  0
LINE
  5
169
330
165
100
AcDbEntity
  8
0
 62
     0
370
    -2
100
AcDbLine
 10
-61.47994720400892
 20
102.486
 30
0.0
 11
-61.47994720400892
 21
99.37199999999999
 31
0.0
  0
LINE
  5
16A
330
165
100
AcDbEntity
  8
0
 62
     0
370
    -2
100
AcDbLine
 10
-61.47994720400892
 20
112.3140000000037
 30
0.0
 11
-61.47994720400892
 21
115.4280000000037
 31
0.0
  0
INSERT
  5
16B
330
165
100
AcDbEntity
  8
0
 62
     0
370
    -2
100
AcDbBlockReference
  2
_OPEN
 10
-61.47994720400892
 20
105.6
 30
0.0
 41
3.114
 42
3.114
 43
3.114
 50
90.0
  0
INSERT
  5
16C
330
165
100
AcDbEntity
  8
0
 62
     0
370
    -2
100
AcDbBlockReference
  2
_OPEN
 10
-61.47994720400892
 20
109.2000000000037
 30
0.0
 41
3.114
 42
3.114
 43
3.114
 50
270.0
  0
MTEXT
  5
16D
330
165
100
AcDbEntity
  8
0
 62
     0
100
AcDbMText
 10
-64.47994720400891
 20
107.4010000000018
 30
0.0
 40
4.0
 41
0.0
 71
     5
 72
     1
  1
3.6
 11
0.0
 21
1.0
 31
0.0
 73
     1
 44
1.0
  0
POINT
  5
16E
330
165
100
AcDbEntity
  8
Defpoints
 62
     0
100
AcDbPoint
 10
-49.19999999999999
 20
105.6
 30
0.0
  0
POINT
  5
16F
330
165
100
AcDbEntity
  8
Defpoints
 62
     0
100
AcDbPoint
 10
-35.59999999999999
 20
109.2000000000037
 30
0.0
  0
POINT
  5
170
330
165
100
AcDbEntity
  8
Defpoints
 62
     0
100
AcDbPoint
 10
-61.48094720400891
 20
109.2000000000037
 30
0.0
  0
ENDBLK
  5
172
330
165
100
AcDbEntity
  8
0
100
AcDbBlockEnd
  0
BLOCK
  5
180
330
174
100
AcDbEntity
  8
0
100
AcDbBlockBegin
  2
*D4
 70
     1
 10
0.0
 20
0.0
 30
0.0
  3
*D4
  1

  0
LINE
  5
175
330
174
100
AcDbEntity
  8
0
 62
     0
370
    -2
100
AcDbLine
 10
5.0
 20
126.2399999999996
 30
0.0
 11
5.0
 21
162.3219982830745
 31
0.0
  0
LINE
  5
176
330
174
100
AcDbEntity
  8
0
 62
     0
370
    -2
100
AcDbLine
 10
0.0
 20
147.34
 30
0.0
 11
0.0
 21
162.3219982830745
 31
0.0
  0
LINE
  5
177
330
174
100
AcDbEntity
  8
0
 62
     0
370
    -2
100
AcDbLine
 10
5.0
 20
160.3219982830745
 30
0.0
 11
0.0
 21
160.3219982830745
 31
0.0
  0
LINE
  5
178
330
174
100
AcDbEntity
  8
0
 62
     0
370
    -2
100
AcDbLine
 10
8.114
 20
160.3219982830745
 30
0.0
 11
11.228
 21
160.3219982830745
 31
0.0
  0
LINE
  5
179
330
174
100
AcDbEntity
  8
0
 62
     0
370
    -2
100
AcDbLine
 10
-3.114
 20
160.3219982830745
 30
0.0
 11
-6.228
 21
160.3219982830745
 31
0.0
  0
INSERT
  5
17A
330
174
100
AcDbEntity
  8
0
 62
     0
370
    -2
100
AcDbBlockReference
  2
_OPEN
 10
5.0
 20
160.3219982830745
 30
0.0
 41
3.114
 42
3.114
 43
3.114
 50
180.0
  0
INSERT
  5
17B
330
174
100
AcDbEntity
  8
0
 62
     0
370
    -2
100
AcDbBlockReference
  2
_OPEN
 10
0.0
 20
160.3219982830745
 30
0.0
 41
3.114
 42
3.114
 43
3.114
  0
MTEXT
  5
17C
330
174
100
AcDbEntity
  8
0
 62
     0
100
AcDbMText
 10
2.501
 20
163.3219982830745
 30
0.0
 40
4.0
 41
0.0
 71
     5
 72
     1
  1
5
 73
     1
 44
1.0
  0
POINT
  5
17D
330
174
100
AcDbEntity
  8
Defpoints
 62
     0
100
AcDbPoint
 10
5.0
 20
123.6999999999996
 30
0.0
  0
POINT
  5
17E
330
174
100
AcDbEntity
  8
Defpoints
 62
     0
100
AcDbPoint
 10
0.0
 20
144.8
 30
0.0
  0
POINT
  5
17F
330
174
100
AcDbEntity
  8
Defpoints
 62
     0
100
AcDbPoint
 10
0.0
 20
160.3219982830745
 30
0.0
  0
ENDBLK
  5
181
330
174
100
AcDbEntity
  8
0
100
AcDbBlockEnd
  0
BLOCK
  5
18D
330
183
100
AcDbEntity
  8
0
100
AcDbBlockBegin
  2
*D5
 70
     1
 10
0.0
 20
0.0
 30
0.0
  3
*D5
  1

  0
LINE
  5
184
330
183
100
AcDbEntity
  8
0
 62
     0
370
    -2
100
AcDbLine
 10
28.20315172912515
 20
55.59999999999999
 30
0.0
 11
17.64493502109314
 21
55.6
 31
0.0
  0
LINE
  5
185
330
183
100
AcDbEntity
  8
0
 62
     0
370
    -2
100
AcDbLine
 10
34.80315172912517
 20
66.6
 30
0.0
 11
17.64493502109314
 21
66.60000000000001
 31
0.0
  0
LINE
  5
186
330
183
100
AcDbEntity
  8
0
 62
     0
370
    -2
100
AcDbLine
 10
19.64493502109314
 20
58.714
 30
0.0
 11
19.64493502109314
 21
63.48600000000001
 31
0.0
  0
INSERT
  5
187
330
183
100
AcDbEntity
  8
0
 62
     0
370
    -2
100
AcDbBlockReference
  2
_OPEN
 10
19.64493502109314
 20
55.6
 30
0.0
 41
3.114
 42
3.114
 43
3.114
 50
270.0
  0
INSERT
  5
188
330
183
100
AcDbEntity
  8
0
 62
     0
370
    -2
100
AcDbBlockReference
  2
_OPEN
 10
19.64493502109314
 20
66.60000000000001
 30
0.0
 41
3.114
 42
3.114
 43
3.114
 50
89.99999999999999
  0
MTEXT
  5
189
330
183
100
AcDbEntity
  8
0
 62
     0
100
AcDbMText
 10
16.64493502109314
 20
61.10099999999999
 30
0.0
 40
4.0
 41
0.0
 71
     5
 72
     1
  1
11
 11
3.229739708000457E-16
 21
1.0
 31
0.0
 73
     1
 44
1.0
  0
POINT
  5
18A
330
183
100
AcDbEntity
  8
Defpoints
 62
     0
100
AcDbPoint
 10
30.74315172912515
 20
55.59999999999999
 30
0.0
  0
POINT
  5
18B
330
183
100
AcDbEntity
  8
Defpoints
 62
     0
100
AcDbPoint
 10
37.34315172912517
 20
66.6
 30
0.0
  0
POINT
  5
18C
330
183
100
AcDbEntity
  8
Defpoints
 62
     0
100
AcDbPoint
 10
19.64393502109314
 20
66.6
 30
0.0
  0
ENDBLK
  5
18E
330
183
100
AcDbEntity
  8
0
100
AcDbBlockEnd
  0
BLOCK
  5
19A
330
190
100
AcDbEntity
  8
0
100
AcDbBlockBegin
  2
*D6
 70
     1
 10
0.0
 20
0.0
 30
0.0
  3
*D6
  1

  0
LINE
  5
191
330
190
100
AcDbEntity
  8
0
 62
     0
370
    -2
100
AcDbLine
 10
0.0
 20
103.06
 30
0.0
 11
0.0
 21
94.51295345074553
 31
0.0
  0
LINE
  5
192
330
190
100
AcDbEntity
  8
0
 62
     0
370
    -2
100
AcDbLine
 10
-49.19999999999999
 20
103.06
 30
0.0
 11
-49.19999999999999
 21
94.51295345074553
 31
0.0
  0
LINE
  5
193
330
190
100
AcDbEntity
  8
0
 62
     0
370
    -2
100
AcDbLine
 10
-3.114
 20
96.51295345074553
 30
0.0
 11
-46.08599999999999
 21
96.51295345074553
 31
0.0
  0
INSERT
  5
194
330
190
100
AcDbEntity
  8
0
 62
     0
370
    -2
100
AcDbBlockReference
  2
_OPEN
 10
0.0
 20
96.51295345074553
 30
0.0
 41
3.114
 42
3.114
 43
3.114
  0
INSERT
  5
195
330
190
100
AcDbEntity
  8
0
 62
     0
370
    -2
100
AcDbBlockReference
  2
_OPEN
 10
-49.19999999999999
 20
96.51295345074553
 30
0.0
 41
3.114
 42
3.114
 43
3.114
 50
180.0
  0
MTEXT
  5
196
330
190
100
AcDbEntity
  8
0
 62
     0
100
AcDbMText
 10
-24.59899999999999
 20
99.51295345074553
 30
0.0
 40
4.0
 41
0.0
 71
     5
 72
     1
  1
49.2
 73
     1
 44
1.0
  0
POINT
  5
197
330
190
100
AcDbEntity
  8
Defpoints
 62
     0
100
AcDbPoint
 10
0.0
 20
105.6
 30
0.0
  0
POINT
  5
198
330
190
100
AcDbEntity
  8
Defpoints
 62
     0
100
AcDbPoint
 10
-49.19999999999999
 20
105.6
 30
0.0
  0
POINT
  5
199
330
190
100
AcDbEntity
  8
Defpoints
 62
     0
100
AcDbPoint
 10
-49.19999999999999
 20
96.51195345074552
 30
0.0
  0
ENDBLK
  5
19B
330
190
100
AcDbEntity
  8
0
100
AcDbBlockEnd
  0
BLOCK
  5
1A7
330
19D
100
AcDbEntity
  8
0
100
AcDbBlockBegin
  2
*D7
 70
     1
 10
0.0
 20
0.0
 30
0.0
  3
*D7
  1

  0
LINE
  5
19E
330
19D
100
AcDbEntity
  8
0
 62
     0
370
    -2
100
AcDbLine
 10
72.87
 20
108.6599999999996
 30
0.0
 11
72.87
 21
94.51295345074553
 31
0.0
  0
LINE
  5
19F
330
19D
100
AcDbEntity
  8
0
 62
     0
370
    -2
100
AcDbLine
 10
4.200000000000003
 20
103.1599999999996
 30
0.0
 11
4.200000000000003
 21
94.51295345074553
 31
0.0
  0
LINE
  5
1A0
330
19D
100
AcDbEntity
  8
0
 62
     0
370
    -2
100
AcDbLine
 10
69.756
 20
96.51295345074553
 30
0.0
 11
7.314000000000003
 21
96.51295345074553
 31
0.0
  0
INSERT
  5
1A1
330
19D
100
AcDbEntity
  8
0
 62
     0
370
    -2
100
AcDbBlockReference
  2
_OPEN
 10
72.87
 20
96.51295345074553
 30
0.0
 41
3.114
 42
3.114
 43
3.114
  0
INSERT
  5
1A2
330
19D
100
AcDbEntity
  8
0
 62
     0
370
    -2
100
AcDbBlockReference
  2
_OPEN
 10
4.200000000000003
 20
96.51295345074553
 30
0.0
 41
3.114
 42
3.114
 43
3.114
 50
180.0
  0
MTEXT
  5
1A3
330
19D
100
AcDbEntity
  8
0
 62
     0
100
AcDbMText
 10
38.536
 20
99.51295345074553
 30
0.0
 40
4.0
 41
0.0
 71
     5
 72
     1
  1
68.5
 73
     1
 44
1.0
  0
POINT
  5
1A4
330
19D
100
AcDbEntity
  8
Defpoints
 62
     0
100
AcDbPoint
 10
72.87
 20
111.1999999999996
 30
0.0
  0
POINT
  5
1A5
330
19D
100
AcDbEntity
  8
Defpoints
 62
     0
100
AcDbPoint
 10
4.200000000000003
 20
105.6999999999996
 30
0.0
  0
POINT
  5
1A6
330
19D
100
AcDbEntity
  8
Defpoints
 62
     0
100
AcDbPoint
 10
4.200000000000003
 20
96.51195345074552
 30
0.0
  0
ENDBLK
  5
1A8
330
19D
100
AcDbEntity
  8
0
100
AcDbBlockEnd
  0
BLOCK
  5
1B0
330
1A9
100
AcDbEntity
  8
0
100
AcDbBlockBegin
  2
DIM0001
 70
     0
 10
0.0
 20
0.0
 30
0.0
  3
DIM0001
  1

  0
LINE
  5
1AA
330
1A9
100
AcDbEntity
  8
0
  6
Continuous
 62
     7
100
AcDbLine
 10
0.0
 20
0.0
 30
0.0
 11
-5.276142682165705
 21
10.33310643918647
 31
0.0
  0
LINE
  5
1AB
330
1A9
100
AcDbEntity
  8
0
  6
Continuous
 62
     7
100
AcDbLine
 10
0.0
 20
0.0
 30
0.0
 11
-1.905053032004968
 21
2.523721447634159
 31
0.0
  0
LINE
  5
1AC
330
1A9
100
AcDbEntity
  8
0
  6
Continuous
 62
     7
100
AcDbLine
 10
0.0
 20
0.0
 30
0.0
 11
-0.927155526299916
 21
3.023041453578088
 31
0.0
  0
LINE
  5
1AD
330
1A9
100
AcDbEntity
  8
0
  6
Continuous
 62
     7
100
AcDbLine
 10
-5.276142682165705
 20
10.33310643918647
 30
0.0
 11
-23.38192018738953
 21
10.33310643918647
 31
0.0
  0
MTEXT
  5
1AE
330
1A9
100
AcDbEntity
  8
0
 62
     7
100
AcDbMText
 10
-23.38192018738953
 20
11.33310643918647
 30
0.0
 40
4.0
 41
0.0
 71
     7
 72
     1
  1
\W0.75;3-M3D3
 73
     1
 44
1.0
  0
ENDBLK
  5
1B1
330
1A9
100
AcDbEntity
  8
0
100
AcDbBlockEnd
  0
BLOCK
  5
1B9
330
1B2
100
AcDbEntity
  8
0
100
AcDbBlockBegin
  2
SYM0001
 70
     0
 10
0.0
 20
0.0
 30
0.0
  3
SYM0001
  1

  0
LINE
  5
1B3
330
1B2
100
AcDbEntity
  8
0
  6
Continuous
 62
     7
100
AcDbLine
 10
0.0
 20
0.0
 30
0.0
 11
5.155577507533124
 21
-20.675192157967
 31
0.0
  0
LINE
  5
1B4
330
1B2
100
AcDbEntity
  8
0
  6
Continuous
 62
     7
100
AcDbLine
 10
0.0
 20
0.0
 30
0.0
 11
1.286125680199447
 21
-2.888646349889768
 31
0.0
  0
LINE
  5
1B5
330
1B2
100
AcDbEntity
  8
0
  6
Continuous
 62
     7
100
AcDbLine
 10
0.0
 20
0.0
 30
0.0
 11
0.220749115364015
 21
-3.154309247373504
 31
0.0
  0
LINE
  5
1B6
330
1B2
100
AcDbEntity
  8
0
  6
Continuous
 62
     7
100
AcDbLine
 10
5.155577507533124
 20
-20.675192157967
 30
0.0
 11
-17.35259060601337
 21
-20.675192157967
 31
0.0
  0
MTEXT
  5
1B7
330
1B2
100
AcDbEntity
  8
0
 62
     7
100
AcDbMText
 10
-15.35259060601337
 20
-19.925192157967
 30
0.0
 40
3.0
 41
0.0
 71
     7
 72
     1
  1
{\W0.833333;顕微鏡用照明}
 73
     1
 44
1.0
  0
ENDBLK
  5
1BA
330
1B2
100
AcDbEntity
  8
0
100
AcDbBlockEnd
  0
BLOCK
  5
1C0
330
1BB
100
AcDbEntity
  8
0
100
AcDbBlockBegin
  2
SYM0002
 70
     0
 10
0.0
 20
0.0
 30
0.0
  3
SYM0002
  1

  0
LINE
  5
1BC
330
1BB
100
AcDbEntity
  8
0
  6
Continuous
 62
     7
100
AcDbLine
 10
0.0
 20
0.0
 30
0.0
 11
0.0
 21
-8.5
 31
0.0
  0
LINE
  5
1BD
330
1BB
100
AcDbEntity
  8
0
  6
Continuous
 62
     7
100
AcDbLine
 10
0.0
 20
0.0
 30
0.0
 11
0.548999999999999
 21
-3.114000000000004
 31
0.0
  0
LINE
  5
1BE
330
1BB
100
AcDbEntity
  8
0
  6
Continuous
 62
     7
100
AcDbLine
 10
0.0
 20
0.0
 30
0.0
 11
-0.548999999999999
 21
-3.114000000000004
 31
0.0
  0
ENDBLK
  5
1C1
330
1BB
100
AcDbEntity
  8
0
100
AcDbBlockEnd
  0
BLOCK
  5
1CD
330
1C3
100
AcDbEntity
  8
0
100
AcDbBlockBegin
  2
*D11
 70
     1
 10
0.0
 20
0.0
 30
0.0
  3
*D11
  1

  0
LINE
  5
1C4
330
1C3
100
AcDbEntity
  8
0
 62
     0
370
    -2
100
AcDbLine
 10
-17.06
 20
35.59999999999999
 30
0.0
 11
17.63133976473188
 21
35.60000000000001
 31
0.0
  0
LINE
  5
1C5
330
1C3
100
AcDbEntity
  8
0
 62
     0
370
    -2
100
AcDbLine
 10
17.4268758506411
 20
3.599999999999994
 30
0.0
 11
13.63133976473189
 21
3.599999999999994
 31
0.0
  0
LINE
  5
1C6
330
1C3
100
AcDbEntity
  8
0
 62
     0
370
    -2
100
AcDbLine
 10
15.63133976473188
 20
32.48600000000001
 30
0.0
 11
15.63133976473189
 21
6.713999999999994
 31
0.0
  0
INSERT
  5
1C7
330
1C3
100
AcDbEntity
  8
0
 62
     0
370
    -2
100
AcDbBlockReference
  2
_OPEN
 10
15.63133976473188
 20
35.60000000000001
 30
0.0
 41
3.114
 42
3.114
 43
3.114
 50
90.00000000000001
  0
INSERT
  5
1C8
330
1C3
100
AcDbEntity
  8
0
 62
     0
370
    -2
100
AcDbBlockReference
  2
_OPEN
 10
15.63133976473189
 20
3.599999999999994
 30
0.0
 41
3.114
 42
3.114
 43
3.114
 50
270.0
  0
MTEXT
  5
1C9
330
1C3
100
AcDbEntity
  8
0
 62
     0
100
AcDbMText
 10
12.63133976473189
 20
19.2240903260799
 30
0.0
 40
4.0
 41
0.0
 71
     5
 72
     1
  1
32
 11
-3.885780586188046E-16
 21
1.0
 31
0.0
 73
     1
 44
1.0
  0
POINT
  5
1CA
330
1C3
100
AcDbEntity
  8
Defpoints
 62
     0
100
AcDbPoint
 10
-19.59999999999999
 20
35.59999999999999
 30
0.0
  0
POINT
  5
1CB
330
1C3
100
AcDbEntity
  8
Defpoints
 62
     0
100
AcDbPoint
 10
19.9668758506411
 20
3.599999999999994
 30
0.0
  0
POINT
  5
1CC
330
1C3
100
AcDbEntity
  8
Defpoints
 62
     0
100
AcDbPoint
 10
15.63033976473189
 20
3.599999999999993
 30
0.0
  0
ENDBLK
  5
1CE
330
1C3
100
AcDbEntity
  8
0
100
AcDbBlockEnd
  0
BLOCK
  5
1DD
330
1D0
100
AcDbEntity
  8
0
100
AcDbBlockBegin
  2
*D12
 70
     1
 10
0.0
 20
0.0
 30
0.0
  3
*D12
  1

  0
LINE
  5
1D1
330
1D0
100
AcDbEntity
  8
0
 62
     0
370
    -2
100
AcDbLine
 10
-1.059999999999994
 20
3.599999999999995
 30
0.0
 11
17.63033976473188
 21
3.600000000000003
 31
0.0
  0
LINE
  5
1D2
330
1D0
100
AcDbEntity
  8
0
 62
     0
370
    -2
100
AcDbLine
 10
2.54
 20
0.000000000000001
 30
0.0
 11
17.63033976473189
 21
0.000000000000007
 31
0.0
  0
LINE
  5
1D3
330
1D0
100
AcDbEntity
  8
0
 62
     0
370
    -2
100
AcDbLine
 10
15.63033976473188
 20
0.000000000000006
 30
0.0
 11
15.63033976473189
 21
-16.60895238095237
 31
0.0
  0
LINE
  5
1D4
330
1D0
100
AcDbEntity
  8
0
 62
     0
370
    -2
100
AcDbLine
 10
15.63033976473188
 20
3.600000000000002
 30
0.0
 11
15.63033976473188
 21
0.000000000000006
 31
0.0
  0
LINE
  5
1D5
330
1D0
100
AcDbEntity
  8
0
 62
     0
370
    -2
100
AcDbLine
 10
15.63033976473188
 20
6.714000000000002
 30
0.0
 11
15.63033976473188
 21
9.828000000000003
 31
0.0
  0
LINE
  5
1D6
330
1D0
100
AcDbEntity
  8
0
 62
     0
370
    -2
100
AcDbLine
 10
15.63033976473189
 20
-3.113999999999994
 30
0.0
 11
15.63033976473189
 21
-6.227999999999994
 31
0.0
  0
INSERT
  5
1D7
330
1D0
100
AcDbEntity
  8
0
 62
     0
370
    -2
100
AcDbBlockReference
  2
_OPEN
 10
15.63033976473188
 20
3.600000000000002
 30
0.0
 41
3.114
 42
3.114
 43
3.114
 50
270.0
  0
INSERT
  5
1D8
330
1D0
100
AcDbEntity
  8
0
 62
     0
370
    -2
100
AcDbBlockReference
  2
_OPEN
 10
15.63033976473188
 20
0.000000000000006
 30
0.0
 41
3.114
 42
3.114
 43
3.114
 50
90.00000000000001
  0
MTEXT
  5
1D9
330
1D0
100
AcDbEntity
  8
0
 62
     0
100
AcDbMText
 10
12.63033976473189
 20
-11.41847619047619
 30
0.0
 40
4.0
 41
0.0
 71
     5
 72
     1
  1
3.6
 11
-4.934324553889591E-16
 21
1.0
 31
0.0
 73
     1
 44
1.0
  0
POINT
  5
1DA
330
1D0
100
AcDbEntity
  8
Defpoints
 62
     0
100
AcDbPoint
 10
-3.599999999999994
 20
3.599999999999994
 30
0.0
  0
POINT
  5
1DB
330
1D0
100
AcDbEntity
  8
Defpoints
 62
     0
100
AcDbPoint
 10
0.0
 20
0.0
 30
0.0
  0
POINT
  5
1DC
330
1D0
100
AcDbEntity
  8
Defpoints
 62
     0
100
AcDbPoint
 10
15.63033976473189
 20
0.000000000000006
 30
0.0
  0
ENDBLK
  5
1DE
330
1D0
100
AcDbEntity
  8
0
100
AcDbBlockEnd
  0
BLOCK
  5
1ED
330
1E0
100
AcDbEntity
  8
0
100
AcDbBlockBegin
  2
*D13
 70
     1
 10
0.0
 20
0.0
 30
0.0
  3
*D13
  1

  0
LINE
  5
1E1
330
1E0
100
AcDbEntity
  8
0
 62
     0
370
    -2
100
AcDbLine
 10
0.0
 20
-2.54
 30
0.0
 11
0.0
 21
-12.64982493240578
 31
0.0
  0
LINE
  5
1E2
330
1E0
100
AcDbEntity
  8
0
 62
     0
370
    -2
100
AcDbLine
 10
-3.599999999999994
 20
-10.52001164679978
 30
0.0
 11
-3.599999999999994
 21
-8.649824932405783
 31
0.0
  0
LINE
  5
1E3
330
1E0
100
AcDbEntity
  8
0
 62
     0
370
    -2
100
AcDbLine
 10
0.0
 20
-10.64982493240578
 30
0.0
 11
16.60895238095238
 21
-10.64982493240578
 31
0.0
  0
LINE
  5
1E4
330
1E0
100
AcDbEntity
  8
0
 62
     0
370
    -2
100
AcDbLine
 10
0.0
 20
-10.64982493240578
 30
0.0
 11
-3.599999999999994
 21
-10.64982493240578
 31
0.0
  0
LINE
  5
1E5
330
1E0
100
AcDbEntity
  8
0
 62
     0
370
    -2
100
AcDbLine
 10
3.114
 20
-10.64982493240578
 30
0.0
 11
6.228
 21
-10.64982493240578
 31
0.0
  0
LINE
  5
1E6
330
1E0
100
AcDbEntity
  8
0
 62
     0
370
    -2
100
AcDbLine
 10
-6.713999999999994
 20
-10.64982493240578
 30
0.0
 11
-9.827999999999994
 21
-10.64982493240578
 31
0.0
  0
INSERT
  5
1E7
330
1E0
100
AcDbEntity
  8
0
 62
     0
370
    -2
100
AcDbBlockReference
  2
_OPEN
 10
0.0
 20
-10.64982493240578
 30
0.0
 41
3.114
 42
3.114
 43
3.114
 50
180.0
  0
INSERT
  5
1E8
330
1E0
100
AcDbEntity
  8
0
 62
     0
370
    -2
100
AcDbBlockReference
  2
_OPEN
 10
-3.599999999999994
 20
-10.64982493240578
 30
0.0
 41
3.114
 42
3.114
 43
3.114
  0
MTEXT
  5
1E9
330
1E0
100
AcDbEntity
  8
0
 62
     0
100
AcDbMText
 10
11.41847619047619
 20
-7.649824932405783
 30
0.0
 40
4.0
 41
0.0
 71
     5
 72
     1
  1
3.6
 73
     1
 44
1.0
  0
POINT
  5
1EA
330
1E0
100
AcDbEntity
  8
Defpoints
 62
     0
100
AcDbPoint
 10
0.0
 20
0.0
 30
0.0
  0
POINT
  5
1EB
330
1E0
100
AcDbEntity
  8
Defpoints
 62
     0
100
AcDbPoint
 10
-3.599999999999994
 20
-13.06001164679978
 30
0.0
  0
POINT
  5
1EC
330
1E0
100
AcDbEntity
  8
Defpoints
 62
     0
100
AcDbPoint
 10
-3.599999999999994
 20
-10.65082493240578
 30
0.0
  0
ENDBLK
  5
1EE
330
1E0
100
AcDbEntity
  8
0
100
AcDbBlockEnd
  0
BLOCK
  5
1FA
330
1F0
100
AcDbEntity
  8
0
100
AcDbBlockBegin
  2
*D14
 70
     1
 10
0.0
 20
0.0
 30
0.0
  3
*D14
  1

  0
LINE
  5
1F1
330
1F0
100
AcDbEntity
  8
0
 62
     0
370
    -2
100
AcDbLine
 10
-3.599999999999994
 20
1.059999999999994
 30
0.0
 11
-3.599999999999994
 21
-12.64982493240578
 31
0.0
  0
LINE
  5
1F2
330
1F0
100
AcDbEntity
  8
0
 62
     0
370
    -2
100
AcDbLine
 10
-35.59999999999999
 20
1.059999999999994
 30
0.0
 11
-35.59999999999999
 21
-12.64982493240578
 31
0.0
  0
LINE
  5
1F3
330
1F0
100
AcDbEntity
  8
0
 62
     0
370
    -2
100
AcDbLine
 10
-6.713999999999994
 20
-10.64982493240578
 30
0.0
 11
-32.486
 21
-10.64982493240578
 31
0.0
  0
INSERT
  5
1F4
330
1F0
100
AcDbEntity
  8
0
 62
     0
370
    -2
100
AcDbBlockReference
  2
_OPEN
 10
-3.599999999999994
 20
-10.64982493240578
 30
0.0
 41
3.114
 42
3.114
 43
3.114
  0
INSERT
  5
1F5
330
1F0
100
AcDbEntity
  8
0
 62
     0
370
    -2
100
AcDbBlockReference
  2
_OPEN
 10
-35.59999999999999
 20
-10.64982493240578
 30
0.0
 41
3.114
 42
3.114
 43
3.114
 50
180.0
  0
MTEXT
  5
1F6
330
1F0
100
AcDbEntity
  8
0
 62
     0
100
AcDbMText
 10
-19.38217381779433
 20
-7.649824932405783
 30
0.0
 40
4.0
 41
0.0
 71
     5
 72
     1
  1
32
 73
     1
 44
1.0
  0
POINT
  5
1F7
330
1F0
100
AcDbEntity
  8
Defpoints
 62
     0
100
AcDbPoint
 10
-3.599999999999994
 20
3.599999999999994
 30
0.0
  0
POINT
  5
1F8
330
1F0
100
AcDbEntity
  8
Defpoints
 62
     0
100
AcDbPoint
 10
-35.59999999999999
 20
3.599999999999994
 30
0.0
  0
POINT
  5
1F9
330
1F0
100
AcDbEntity
  8
Defpoints
 62
     0
100
AcDbPoint
 10
-35.59999999999999
 20
-10.65082493240578
 30
0.0
  0
ENDBLK
  5
1FB
330
1F0
100
AcDbEntity
  8
0
100
AcDbBlockEnd
  0
BLOCK
  5
209
330
1FD
100
AcDbEntity
  8
0
100
AcDbBlockBegin
  2
*D15
 70
     1
 10
0.0
 20
0.0
 30
0.0
  3
*D15
  1

  0
LINE
  5
1FE
330
1FD
100
AcDbEntity
  8
0
 62
     0
370
    -2
100
AcDbLine
 10
-2.54
 20
112.1999999999996
 30
0.0
 11
-14.98196314745099
 21
112.1999999999996
 31
0.0
  0
LINE
  5
1FF
330
1FD
100
AcDbEntity
  8
0
 62
     0
370
    -2
100
AcDbLine
 10
-33.06
 20
109.2000000000037
 30
0.0
 11
-10.98196314745099
 21
109.2000000000037
 31
0.0
  0
LINE
  5
200
330
1FD
100
AcDbEntity
  8
0
 62
     0
370
    -2
100
AcDbLine
 10
-12.98196314745099
 20
112.1999999999996
 30
0.0
 11
-12.98196314745099
 21
109.2000000000037
 31
0.0
  0
LINE
  5
201
330
1FD
100
AcDbEntity
  8
0
 62
     0
370
    -2
100
AcDbLine
 10
-12.98196314745099
 20
115.3139999999996
 30
0.0
 11
-12.98196314745099
 21
118.4279999999996
 31
0.0
  0
LINE
  5
202
330
1FD
100
AcDbEntity
  8
0
 62
     0
370
    -2
100
AcDbLine
 10
-12.98196314745099
 20
106.0860000000037
 30
0.0
 11
-12.98196314745098
 21
102.9720000000036
 31
0.0
  0
INSERT
  5
203
330
1FD
100
AcDbEntity
  8
0
 62
     0
370
    -2
100
AcDbBlockReference
  2
_OPEN
 10
-12.98196314745099
 20
112.1999999999996
 30
0.0
 41
3.114
 42
3.114
 43
3.114
 50
270.0
  0
INSERT
  5
204
330
1FD
100
AcDbEntity
  8
0
 62
     0
370
    -2
100
AcDbBlockReference
  2
_OPEN
 10
-12.98196314745099
 20
109.2000000000037
 30
0.0
 41
3.114
 42
3.114
 43
3.114
 50
90.00000000000004
  0
MTEXT
  5
205
330
1FD
100
AcDbEntity
  8
0
 62
     0
100
AcDbMText
 10
-15.98196314745099
 20
110.7010000000016
 30
0.0
 40
4.0
 41
0.0
 71
     5
 72
     1
  1
3
 11
-5.921189464675608E-16
 21
1.0
 31
0.0
 73
     1
 44
1.0
  0
POINT
  5
206
330
1FD
100
AcDbEntity
  8
Defpoints
 62
     0
100
AcDbPoint
 10
0.0
 20
112.1999999999996
 30
0.0
  0
POINT
  5
207
330
1FD
100
AcDbEntity
  8
Defpoints
 62
     0
100
AcDbPoint
 10
-35.59999999999999
 20
109.2000000000037
 30
0.0
  0
POINT
  5
208
330
1FD
100
AcDbEntity
  8
Defpoints
 62
     0
100
AcDbPoint
 10
-12.98296314745099
 20
109.2000000000037
 30
0.0
  0
ENDBLK
  5
20A
330
1FD
100
AcDbEntity
  8
0
100
AcDbBlockEnd
  0
BLOCK
  5
215
330
20C
100
AcDbEntity
  8
0
100
AcDbBlockBegin
  2
*D16
 70
     1
 10
0.0
 20
0.0
 30
0.0
  3
*D16
  1

  0
LINE
  5
20D
330
20C
100
AcDbEntity
  8
0
 62
     0
370
    -2
100
AcDbLine
 10
-17.06
 20
141.2000000000037
 30
0.0
 11
-9.981963147450994
 21
141.2000000000037
 31
0.0
  0
LINE
  5
20E
330
20C
100
AcDbEntity
  8
0
 62
     0
370
    -2
100
AcDbLine
 10
-12.98196314745099
 20
138.0860000000037
 30
0.0
 11
-12.98196314745099
 21
115.3139999999996
 31
0.0
  0
INSERT
  5
20F
330
20C
100
AcDbEntity
  8
0
 62
     0
370
    -2
100
AcDbBlockReference
  2
_OPEN
 10
-12.98196314745099
 20
141.2000000000037
 30
0.0
 41
3.114
 42
3.114
 43
3.114
 50
90.00000000000001
  0
INSERT
  5
210
330
20C
100
AcDbEntity
  8
0
 62
     0
370
    -2
100
AcDbBlockReference
  2
_OPEN
 10
-12.98196314745098
 20
112.1999999999996
 30
0.0
 41
3.114
 42
3.114
 43
3.114
 50
270.0
  0
MTEXT
  5
211
330
20C
100
AcDbEntity
  8
0
 62
     0
100
AcDbMText
 10
-15.98196314745099
 20
126.7010000000016
 30
0.0
 40
4.0
 41
0.0
 71
     5
 72
     1
  1
29
 11
-3.675221047034482E-16
 21
1.0
 31
0.0
 73
     1
 44
1.0
  0
POINT
  5
212
330
20C
100
AcDbEntity
  8
Defpoints
 62
     0
100
AcDbPoint
 10
-19.59999999999999
 20
141.2000000000037
 30
0.0
  0
POINT
  5
213
330
20C
100
AcDbEntity
  8
Defpoints
 62
     0
100
AcDbPoint
 10
-12.98296314745099
 20
112.1999999999996
 30
0.0
  0
POINT
  5
214
330
20C
100
AcDbEntity
  8
Defpoints
 62
     0
100
AcDbPoint
 10
-12.98296314745099
 20
112.1999999999996
 30
0.0
  0
ENDBLK
  5
216
330
20C
100
AcDbEntity
  8
0
100
AcDbBlockEnd
  0
BLOCK
  5
221
330
218
100
AcDbEntity
  8
0
100
AcDbBlockBegin
  2
*D17
 70
     1
 10
0.0
 20
0.0
 30
0.0
  3
*D17
  1

  0
LINE
  5
219
330
218
100
AcDbEntity
  8
0
 62
     0
370
    -2
100
AcDbLine
 10
-35.59999999999999
 20
111.7400000000037
 30
0.0
 11
-35.59999999999999
 21
163.3229982830746
 31
0.0
  0
LINE
  5
21A
330
218
100
AcDbEntity
  8
0
 62
     0
370
    -2
100
AcDbLine
 10
-32.48599999999999
 20
160.3229982830746
 30
0.0
 11
-22.714
 21
160.3229982830746
 31
0.0
  0
INSERT
  5
21B
330
218
100
AcDbEntity
  8
0
 62
     0
370
    -2
100
AcDbBlockReference
  2
_OPEN
 10
-35.59999999999999
 20
160.3229982830746
 30
0.0
 41
3.114
 42
3.114
 43
3.114
 50
180.0
  0
INSERT
  5
21C
330
218
100
AcDbEntity
  8
0
 62
     0
370
    -2
100
AcDbBlockReference
  2
_OPEN
 10
-19.59999999999999
 20
160.3229982830746
 30
0.0
 41
3.114
 42
3.114
 43
3.114
  0
MTEXT
  5
21D
330
218
100
AcDbEntity
  8
0
 62
     0
100
AcDbMText
 10
-27.59899999999999
 20
163.3229982830746
 30
0.0
 40
4.0
 41
0.0
 71
     5
 72
     1
  1
16
 73
     1
 44
1.0
  0
POINT
  5
21E
330
218
100
AcDbEntity
  8
Defpoints
 62
     0
100
AcDbPoint
 10
-35.59999999999999
 20
109.2000000000037
 30
0.0
  0
POINT
  5
21F
330
218
100
AcDbEntity
  8
Defpoints
 62
     0
100
AcDbPoint
 10
-19.59999999999999
 20
160.3219982830745
 30
0.0
  0
POINT
  5
220
330
218
100
AcDbEntity
  8
Defpoints
 62
     0
100
AcDbPoint
 10
-19.59999999999999
 20
160.3219982830745
 30
0.0
  0
ENDBLK
  5
222
330
218
100
AcDbEntity
  8
0
100
AcDbBlockEnd
  0
BLOCK
  5
22A
330
223
100
AcDbEntity
  8
0
100
AcDbBlockBegin
  2
DIM0002
 70
     0
 10
0.0
 20
0.0
 30
0.0
  3
DIM0002
  1

  0
LINE
  5
224
330
223
100
AcDbEntity
  8
0
  6
Continuous
 62
     7
100
AcDbLine
 10
0.0
 20
0.0
 30
0.0
 11
-8.890677105935858
 21
-21.03741742963766
 31
0.0
  0
LINE
  5
225
330
223
100
AcDbEntity
  8
0
  6
Continuous
 62
     7
100
AcDbLine
 10
0.0
 20
0.0
 30
0.0
 11
-0.706513875952815
 21
-3.08208292281148
 31
0.0
  0
LINE
  5
226
330
223
100
AcDbEntity
  8
0
  6
Continuous
 62
     7
100
AcDbLine
 10
0.0
 20
0.0
 30
0.0
 11
-1.71790436723888
 21
-2.654656585138952
 31
0.0
  0
LINE
  5
227
330
223
100
AcDbEntity
  8
0
  6
Continuous
 62
     7
100
AcDbLine
 10
-8.890677105935843
 20
-21.03741742963767
 30
0.0
 11
-21.13621122154165
 21
-21.03741742963767
 31
0.0
  0
MTEXT
  5
228
330
223
100
AcDbEntity
  8
0
 62
     7
100
AcDbMText
 10
-21.13621122154165
 20
-20.03741742963767
 30
0.0
 40
4.0
 41
0.0
 71
     7
 72
     1
  1
\W0.75;2-\U+22054
 73
     1
 44
1.0
  0
ENDBLK
  5
22B
330
223
100
AcDbEntity
  8
0
100
AcDbBlockEnd
  0
BLOCK
  5
237
330
22D
100
AcDbEntity
  8
0
100
AcDbBlockBegin
  2
*D19
 70
     1
 10
0.0
 20
0.0
 30
0.0
  3
*D19
  1

  0
LINE
  5
22E
330
22D
100
AcDbEntity
  8
0
 62
     0
370
    -2
100
AcDbLine
 10
-51.73999999999999
 20
55.59999999999999
 30
0.0
 11
-63.47994720400892
 21
55.60000000000001
 31
0.0
  0
LINE
  5
22F
330
22D
100
AcDbEntity
  8
0
 62
     0
370
    -2
100
AcDbLine
 10
-51.73999999999999
 20
78.6
 30
0.0
 11
-63.47994720400892
 21
78.60000000000001
 31
0.0
  0
LINE
  5
230
330
22D
100
AcDbEntity
  8
0
 62
     0
370
    -2
100
AcDbLine
 10
-61.47994720400892
 20
58.71400000000001
 30
0.0
 11
-61.47994720400892
 21
75.486
 31
0.0
  0
INSERT
  5
231
330
22D
100
AcDbEntity
  8
0
 62
     0
370
    -2
100
AcDbBlockReference
  2
_OPEN
 10
-61.47994720400892
 20
55.60000000000001
 30
0.0
 41
3.114
 42
3.114
 43
3.114
 50
270.0
  0
INSERT
  5
232
330
22D
100
AcDbEntity
  8
0
 62
     0
370
    -2
100
AcDbBlockReference
  2
_OPEN
 10
-61.47994720400892
 20
78.60000000000001
 30
0.0
 41
3.114
 42
3.114
 43
3.114
 50
89.99999999999999
  0
MTEXT
  5
233
330
22D
100
AcDbEntity
  8
0
 62
     0
100
AcDbMText
 10
-64.47994720400891
 20
67.101
 30
0.0
 40
4.0
 41
0.0
 71
     5
 72
     1
  1
23
 11
3.089316242435219E-16
 21
1.0
 31
0.0
 73
     1
 44
1.0
  0
POINT
  5
234
330
22D
100
AcDbEntity
  8
Defpoints
 62
     0
100
AcDbPoint
 10
-49.19999999999999
 20
55.59999999999999
 30
0.0
  0
POINT
  5
235
330
22D
100
AcDbEntity
  8
Defpoints
 62
     0
100
AcDbPoint
 10
-49.19999999999999
 20
78.6
 30
0.0
  0
POINT
  5
236
330
22D
100
AcDbEntity
  8
Defpoints
 62
     0
100
AcDbPoint
 10
-61.48094720400891
 20
78.6
 30
0.0
  0
ENDBLK
  5
238
330
22D
100
AcDbEntity
  8
0
100
AcDbBlockEnd
  0
BLOCK
  5
23E
330
239
100
AcDbEntity
  8
0
100
AcDbBlockBegin
  2
SYM0003
 70
     0
 10
0.0
 20
0.0
 30
0.0
  3
SYM0003
  1

  0
LINE
  5
23A
330
239
100
AcDbEntity
  8
0
  6
Continuous
 62
     7
100
AcDbLine
 10
0.0
 20
0.0
 30
0.0
 11
0.0
 21
8.5
 31
0.0
  0
LINE
  5
23B
330
239
100
AcDbEntity
  8
0
  6
Continuous
 62
     7
100
AcDbLine
 10
0.0
 20
0.0
 30
0.0
 11
-0.548999999999999
 21
3.114000000000004
 31
0.0
  0
LINE
  5
23C
330
239
100
AcDbEntity
  8
0
  6
Continuous
 62
     7
100
AcDbLine
 10
0.0
 20
0.0
 30
0.0
 11
0.548999999999999
 21
3.114000000000004
 31
0.0
  0
ENDBLK
  5
23F
330
239
100
AcDbEntity
  8
0
100
AcDbBlockEnd
  0
BLOCK
  5
24B
330
241
100
AcDbEntity
  8
0
100
AcDbBlockBegin
  2
*D21
 70
     1
 10
0.0
 20
0.0
 30
0.0
  3
*D21
  1

  0
LINE
  5
242
330
241
100
AcDbEntity
  8
0
 62
     0
370
    -2
100
AcDbLine
 10
-51.73999999999999
 20
39.19999999999999
 30
0.0
 11
-74.99458705571021
 21
39.19999999999998
 31
0.0
  0
LINE
  5
243
330
241
100
AcDbEntity
  8
0
 62
     0
370
    -2
100
AcDbLine
 10
-44.48641016151371
 20
-0.000000000000001
 30
0.0
 11
-74.9945870557102
 21
-0.000000000000008
 31
0.0
  0
LINE
  5
244
330
241
100
AcDbEntity
  8
0
 62
     0
370
    -2
100
AcDbLine
 10
-72.99458705571021
 20
36.08599999999998
 30
0.0
 11
-72.9945870557102
 21
3.113999999999993
 31
0.0
  0
INSERT
  5
245
330
241
100
AcDbEntity
  8
0
 62
     0
370
    -2
100
AcDbBlockReference
  2
_OPEN
 10
-72.99458705571021
 20
39.19999999999998
 30
0.0
 41
3.114
 42
3.114
 43
3.114
 50
90.00000000000001
  0
INSERT
  5
246
330
241
100
AcDbEntity
  8
0
 62
     0
370
    -2
100
AcDbBlockReference
  2
_OPEN
 10
-72.9945870557102
 20
-0.000000000000007
 30
0.0
 41
3.114
 42
3.114
 43
3.114
 50
270.0
  0
MTEXT
  5
247
330
241
100
AcDbEntity
  8
0
 62
     0
100
AcDbMText
 10
-75.99458705571021
 20
19.601
 30
0.0
 40
4.0
 41
0.0
 71
     5
 72
     1
  1
39.2
 11
-3.625218039592348E-16
 21
1.0
 31
0.0
 73
     1
 44
1.0
  0
POINT
  5
248
330
241
100
AcDbEntity
  8
Defpoints
 62
     0
100
AcDbPoint
 10
-49.19999999999999
 20
39.19999999999999
 30
0.0
  0
POINT
  5
249
330
241
100
AcDbEntity
  8
Defpoints
 62
     0
100
AcDbPoint
 10
-41.94641016151371
 20
0.0
 30
0.0
  0
POINT
  5
24A
330
241
100
AcDbEntity
  8
Defpoints
 62
     0
100
AcDbPoint
 10
-72.99558705571022
 20
-0.000000000000012
 30
0.0
  0
ENDBLK
  5
24C
330
241
100
AcDbEntity
  8
0
100
AcDbBlockEnd
  0
BLOCK
  5
25A
330
24E
100
AcDbEntity
  8
0
100
AcDbBlockBegin
  2
*D22
 70
     1
 10
0.0
 20
0.0
 30
0.0
  3
*D22
  1

  0
LINE
  5
24F
330
24E
100
AcDbEntity
  8
0
 62
     0
370
    -2
100
AcDbLine
 10
-94.69999999999999
 20
119.6922172922489
 30
0.0
 11
-94.69999999999999
 21
162.3219982830745
 31
0.0
  0
LINE
  5
250
330
24E
100
AcDbEntity
  8
0
 62
     0
370
    -2
100
AcDbLine
 10
-100.0
 20
146.84
 30
0.0
 11
-100.0
 21
162.3219982830745
 31
0.0
  0
LINE
  5
251
330
24E
100
AcDbEntity
  8
0
 62
     0
370
    -2
100
AcDbLine
 10
-94.69999999999999
 20
160.3219982830745
 30
0.0
 11
-100.0
 21
160.3219982830745
 31
0.0
  0
LINE
  5
252
330
24E
100
AcDbEntity
  8
0
 62
     0
370
    -2
100
AcDbLine
 10
-91.58599999999998
 20
160.3219982830745
 30
0.0
 11
-88.47199999999998
 21
160.3219982830745
 31
0.0
  0
LINE
  5
253
330
24E
100
AcDbEntity
  8
0
 62
     0
370
    -2
100
AcDbLine
 10
-103.114
 20
160.3219982830745
 30
0.0
 11
-106.228
 21
160.3219982830745
 31
0.0
  0
INSERT
  5
254
330
24E
100
AcDbEntity
  8
0
 62
     0
370
    -2
100
AcDbBlockReference
  2
_OPEN
 10
-94.69999999999999
 20
160.3219982830745
 30
0.0
 41
3.114
 42
3.114
 43
3.114
 50
180.0
  0
INSERT
  5
255
330
24E
100
AcDbEntity
  8
0
 62
     0
370
    -2
100
AcDbBlockReference
  2
_OPEN
 10
-100.0
 20
160.3219982830745
 30
0.0
 41
3.114
 42
3.114
 43
3.114
  0
MTEXT
  5
256
330
24E
100
AcDbEntity
  8
0
 62
     0
100
AcDbMText
 10
-97.34899999999999
 20
163.3219982830745
 30
0.0
 40
4.0
 41
0.0
 71
     5
 72
     1
  1
5.3
 73
     1
 44
1.0
  0
POINT
  5
257
330
24E
100
AcDbEntity
  8
Defpoints
 62
     0
100
AcDbPoint
 10
-94.69999999999999
 20
117.1522172922489
 30
0.0
  0
POINT
  5
258
330
24E
100
AcDbEntity
  8
Defpoints
 62
     0
100
AcDbPoint
 10
-100.0
 20
144.3
 30
0.0
  0
POINT
  5
259
330
24E
100
AcDbEntity
  8
Defpoints
 62
     0
100
AcDbPoint
 10
-100.0
 20
160.3219982830745
 30
0.0
  0
ENDBLK
  5
25B
330
24E
100
AcDbEntity
  8
0
100
AcDbBlockEnd
  0
BLOCK
  5
263
330
25C
100
AcDbEntity
  8
0
100
AcDbBlockBegin
  2
SYM0004
 70
     0
 10
0.0
 20
0.0
 30
0.0
  3
SYM0004
  1

  0
LINE
  5
25D
330
25C
100
AcDbEntity
  8
0
  6
Continuous
 62
     7
100
AcDbLine
 10
0.0
 20
0.0
 30
0.0
 11
8.24008009784265
 21
-16.78534834745723
 31
0.0
  0
LINE
  5
25E
330
25C
100
AcDbEntity
  8
0
  6
Continuous
 62
     7
100
AcDbLine
 10
0.0
 20
0.0
 30
0.0
 11
1.865075833849559
 21
-2.553407357628316
 31
0.0
  0
LINE
  5
25F
330
25C
100
AcDbEntity
  8
0
  6
Continuous
 62
     7
100
AcDbLine
 10
0.0
 20
0.0
 30
0.0
 11
0.879436797452726
 21
-3.037266520950396
 31
0.0
  0
LINE
  5
260
330
25C
100
AcDbEntity
  8
0
  6
Continuous
 62
     7
100
AcDbLine
 10
8.24008009784265
 20
-16.78534834745723
 30
0.0
 11
-25.03255402696466
 21
-16.78534834745722
 31
0.0
  0
MTEXT
  5
261
330
25C
100
AcDbEntity
  8
0
 62
     7
100
AcDbMText
 10
-23.03255402696466
 20
-16.03534834745722
 30
0.0
 40
3.0
 41
0.0
 71
     7
 72
     1
  1
{\W0.833333;光軸調整用虹彩絞り}
 73
     1
 44
1.0
  0
ENDBLK
  5
264
330
25C
100
AcDbEntity
  8
0
100
AcDbBlockEnd
  0
ENDSEC
  0
SECTION
  2
ENTITIES
  0
POINT
  5
3F
330
1F
100
AcDbEntity
  8
0
 62
    31
100
AcDbPoint
 10
-49.19999999999999
 20
12.56358613752359
 30
0.0
  0
POINT
  5
40
330
1F
100
AcDbEntity
  8
0
 62
    31
100
AcDbPoint
 10
-41.94641016151371
 20
0.0
 30
0.0
  0
POINT
  5
41
330
1F
100
AcDbEntity
  8
0
 62
    31
100
AcDbPoint
 10
-49.19999999999999
 20
39.19999999999999
 30
0.0
  0
POINT
  5
42
330
1F
100
AcDbEntity
  8
0
 62
    31
100
AcDbPoint
 10
0.0
 20
39.19999999999999
 30
0.0
  0
POINT
  5
43
330
1F
100
AcDbEntity
  8
0
 62
    64
100
AcDbPoint
 10
4.200000000000003
 20
39.10000000000045
 30
0.0
  0
POINT
  5
44
330
1F
100
AcDbEntity
  8
0
 62
   100
100
AcDbPoint
 10
-48.59999999999999
 20
38.59999999999999
 30
0.0
  0
POINT
  5
45
330
1F
100
AcDbEntity
  8
0
 62
   100
100
AcDbPoint
 10
-0.599999999999994
 20
38.59999999999999
 30
0.0
  0
POINT
  5
46
330
1F
100
AcDbEntity
  8
0
 62
   100
100
AcDbPoint
 10
37.34315172912517
 20
66.6
 30
0.0
  0
POINT
  5
47
330
1F
100
AcDbEntity
  8
0
 62
    64
100
AcDbPoint
 10
4.200000000000003
 20
132.1999999999996
 30
0.0
  0
POINT
  5
48
330
1F
100
AcDbEntity
  8
0
 62
    64
100
AcDbPoint
 10
49.34315172912471
 20
70.6
 30
0.0
  0
POINT
  5
49
330
1F
100
AcDbEntity
  8
0
 62
    64
100
AcDbPoint
 10
33.34315172912471
 20
70.6
 30
0.0
  0
POINT
  5
4A
330
1F
100
AcDbEntity
  8
0
 62
    64
100
AcDbPoint
 10
33.34315172912471
 20
62.59999999999999
 30
0.0
  0
POINT
  5
4B
330
1F
100
AcDbEntity
  8
0
 62
     3
100
AcDbPoint
 10
-49.19999999999999
 20
78.6
 30
0.0
  0
POINT
  5
4C
330
1F
100
AcDbEntity
  8
0
 62
    31
100
AcDbPoint
 10
0.0
 20
0.0
 30
0.0
  0
POINT
  5
4D
330
1F
100
AcDbEntity
  8
0
 62
    64
100
AcDbPoint
 10
47.34315172912471
 20
70.6
 30
0.0
  0
POINT
  5
4E
330
1F
100
AcDbEntity
  8
0
 62
    64
100
AcDbPoint
 10
47.34315172912471
 20
62.59999999999999
 30
0.0
  0
POINT
  5
4F
330
1F
100
AcDbEntity
  8
0
 62
    64
100
AcDbPoint
 10
33.34315172912471
 20
62.59999999999999
 30
0.0
  0
POINT
  5
50
330
1F
100
AcDbEntity
  8
0
 62
    64
100
AcDbPoint
 10
33.34315172912471
 20
70.6
 30
0.0
  0
POINT
  5
51
330
1F
100
AcDbEntity
  8
0
 62
     3
100
AcDbPoint
 10
0.0
 20
78.6
 30
0.0
  0
POINT
  5
52
330
1F
100
AcDbEntity
  8
0
 62
    64
100
AcDbPoint
 10
4.200000000000003
 20
12.60000000000045
 30
0.0
  0
POINT
  5
53
330
1F
100
AcDbEntity
  8
0
 62
    64
100
AcDbPoint
 10
4.200000000000003
 20
105.6999999999996
 30
0.0
  0
POINT
  5
54
330
1F
100
AcDbEntity
  8
0
 62
   100
100
AcDbPoint
 10
-0.599999999999994
 20
0.599999999999994
 30
0.0
  0
POINT
  5
55
330
1F
100
AcDbEntity
  8
0
 62
    64
100
AcDbPoint
 10
49.34315172912471
 20
62.59999999999999
 30
0.0
  0
POINT
  5
56
330
1F
100
AcDbEntity
  8
0
 62
     3
100
AcDbPoint
 10
-149.2
 20
78.6
 30
0.0
  0
POINT
  5
57
330
1F
100
AcDbEntity
  8
0
 62
     3
100
AcDbPoint
 10
-100.0
 20
78.6
 30
0.0
  0
LINE
  5
58
330
1F
100
AcDbEntity
  8
0
  6
Continuous
 62
    20
100
AcDbLine
 10
4.200000000000003
 20
23.10000000000045
 30
0.0
 11
5.0
 21
23.10000000000045
 31
0.0
  0
LINE
  5
59
330
1F
100
AcDbEntity
  8
0
  6
Continuous
 62
    64
100
AcDbLine
 10
0.0
 20
12.60000000000045
 30
0.0
 11
0.0
 21
39.10000000000045
 31
0.0
  0
LINE
  5
5A
330
1F
100
AcDbEntity
  8
0
  6
Continuous
 62
     3
100
AcDbLine
 10
-56.2602540378444
 20
5.992304845409635
 30
0.0
 11
-49.33205080756887
 21
9.992304845409635
 31
0.0
  0
LINE
  5
5B
330
1F
100
AcDbEntity
  8
0
  6
Continuous
 62
     4
100
AcDbLine
 10
-61.28653347947324
 20
-7.301923788650335
 30
0.0
 11
-54.79134295108991
 21
-3.551923788650321
 31
0.0
  0
LINE
  5
5C
330
1F
100
AcDbEntity
  8
0
  6
Continuous
 62
     4
100
AcDbLine
 10
-43.71602540378438
 20
2.265063509457462
 30
0.0
 11
-48.21602540378437
 21
10.05929214351743
 31
0.0
  0
LINE
  5
5D
330
1F
100
AcDbEntity
  8
0
  6
Continuous
 62
     4
100
AcDbLine
 10
-59.04134295108993
 20
3.809292143517425
 30
0.0
 11
-48.21602540378446
 21
10.05929214351739
 31
0.0
  0
LINE
  5
5E
330
1F
100
AcDbEntity
  8
0
  6
Continuous
 62
     4
100
AcDbLine
 10
-54.54134295108992
 20
-3.984936490542527
 30
0.0
 11
-43.71602540378446
 21
2.265063509457434
 31
0.0
  0
LINE
  5
5F
330
1F
100
AcDbEntity
  8
0
  6
Continuous
 62
     3
100
AcDbLine
 10
-44.33205080756881
 20
1.332050807565221
 30
0.0
 11
-49.33205080756881
 21
9.992304845409638
 31
0.0
  0
LINE
  5
60
330
1F
100
AcDbEntity
  8
0
  6
Continuous
 62
     3
100
AcDbLine
 10
-51.26025403784443
 20
-2.667949192434705
 30
0.0
 11
-56.26025403784441
 21
5.992304845409691
 31
0.0
  0
LINE
  5
61
330
1F
100
AcDbEntity
  8
0
  6
Continuous
 62
    31
100
AcDbLine
 10
-48.69999999999999
 20
39.19999999999999
 30
0.0
 11
-0.5
 21
39.19999999999999
 31
0.0
  0
LINE
  5
62
330
1F
100
AcDbEntity
  8
0
  6
CENTER
 62
     7
100
AcDbLine
 10
17.71830158387337
 20
32.60000000000045
 30
0.0
 11
72.87
 21
32.60000000000045
 31
0.0
  0
LINE
  5
63
330
1F
100
AcDbEntity
  8
0
  6
Continuous
 62
    64
100
AcDbLine
 10
4.200000000000035
 20
38.60000000000049
 30
0.0
 11
3.700000000000031
 21
39.1000000000005
 31
0.0
  0
LINE
  5
64
330
1F
100
AcDbEntity
  8
0
  6
Continuous
 62
    20
100
AcDbLine
 10
4.200000000000003
 20
21.10000000000045
 30
0.0
 11
5.0
 21
21.10000000000045
 31
0.0
  0
LINE
  5
65
330
1F
100
AcDbEntity
  8
0
  6
Continuous
 62
    64
100
AcDbLine
 10
0.0
 20
12.60000000000045
 30
0.0
 11
3.700000000000003
 21
12.60000000000045
 31
0.0
  0
LINE
  5
66
330
1F
100
AcDbEntity
  8
0
  6
CENTER
 62
     7
100
AcDbLine
 10
4.200000000000003
 20
66.6
 30
0.0
 11
14.92130464474309
 21
66.6
 31
0.0
  0
LINE
  5
67
330
1F
100
AcDbEntity
  8
0
  6
CENTER
 62
     7
100
AcDbLine
 10
4.200000000000003
 20
112.1999999999996
 30
0.0
 11
72.87
 21
112.1999999999996
 31
0.0
  0
LINE
  5
68
330
1F
100
AcDbEntity
  8
0
  6
Continuous
 62
    31
100
AcDbLine
 10
-41.65773502691897
 20
144.8
 30
0.0
 11
-0.5
 21
144.8
 31
0.0
  0
LINE
  5
69
330
1F
100
AcDbEntity
  8
0
  6
Continuous
 62
    64
100
AcDbLine
 10
0.0
 20
39.10000000000045
 30
0.0
 11
3.700000000000003
 21
39.10000000000045
 31
0.0
  0
LINE
  5
6A
330
1F
100
AcDbEntity
  8
0
  6
CENTER
 62
     7
100
AcDbLine
 10
4.200000000000003
 20
32.60000000000045
 30
0.0
 11
13.54237794559042
 21
32.60000000000045
 31
0.0
  0
LINE
  5
6B
330
1F
100
AcDbEntity
  8
0
  6
Continuous
 62
    64
100
AcDbLine
 10
57.34315172912471
 20
74.6
 30
0.0
 11
57.34315172912471
 21
58.59999999999999
 31
0.0
  0
LINE
  5
6C
330
1F
100
AcDbEntity
  8
0
  6
Continuous
 62
    31
100
AcDbLine
 10
-48.69999999999999
 20
105.6
 30
0.0
 11
-0.5
 21
105.6
 31
0.0
  0
LINE
  5
6D
330
1F
100
AcDbEntity
  8
0
  6
Continuous
 62
    31
100
AcDbLine
 10
-49.19999999999999
 20
132.102439266261
 30
0.0
 11
-49.19999999999999
 21
106.1
 31
0.0
  0
LINE
  5
6E
330
1F
100
AcDbEntity
  8
0
  6
Continuous
 62
    64
100
AcDbLine
 10
4.200000000000003
 20
13.10000000000048
 30
0.0
 11
4.200000000000003
 21
38.60000000000045
 31
0.0
  0
LINE
  5
6F
330
1F
100
AcDbEntity
  8
0
  6
Continuous
 62
   220
100
AcDbLine
 10
31.34315172912517
 20
74.6
 30
0.0
 11
31.34315172912517
 21
58.59999999999999
 31
0.0
  0
LINE
  5
70
330
1F
100
AcDbEntity
  8
0
  6
Continuous
 62
    20
100
AcDbLine
 10
5.0
 20
21.10000000000045
 30
0.0
 11
5.0
 21
23.10000000000045
 31
0.0
  0
LINE
  5
71
330
1F
100
AcDbEntity
  8
0
  6
Continuous
 62
    64
100
AcDbLine
 10
3.700000000000053
 20
12.60000000000047
 30
0.0
 11
4.200000000000039
 21
13.10000000000048
 31
0.0
  0
LINE
  5
72
330
1F
100
AcDbEntity
  8
0
  6
Continuous
 62
     3
100
AcDbLine
 10
-43.89173216949938
 20
2.740969430163094
 30
0.0
 11
-43.61961524226913
 21
2.898076211350531
 31
0.0
  0
LINE
  5
73
330
1F
100
AcDbEntity
  8
0
  6
Continuous
 62
     3
100
AcDbLine
 10
-47.89173216949937
 20
9.669172660438672
 30
0.0
 11
-47.61961524226911
 21
9.826279441626117
 31
0.0
  0
LINE
  5
74
330
1F
100
AcDbEntity
  8
0
  6
Continuous
 62
     3
100
AcDbLine
 10
-56.01025403784439
 20
5.559292143517418
 30
0.0
 11
-49.08205080756888
 21
9.55929214351741
 31
0.0
  0
LINE
  5
75
330
1F
100
AcDbEntity
  8
0
  6
Continuous
 62
    31
100
AcDbLine
 10
-49.13301270189218
 20
132.3524392662611
 30
0.0
 11
-42.09074772881121
 21
144.55
 31
0.0
  0
LINE
  5
76
330
1F
100
AcDbEntity
  8
0
  6
Continuous
 62
    31
100
AcDbLine
 10
0.0
 20
144.3
 30
0.0
 11
0.0
 21
106.1
 31
0.0
  0
LINE
  5
77
330
1F
100
AcDbEntity
  8
0
  6
Continuous
 62
   220
100
AcDbLine
 10
43.34315172912517
 20
74.6
 30
0.0
 11
31.34315172912517
 21
74.6
 31
0.0
  0
LINE
  5
78
330
1F
100
AcDbEntity
  8
0
  6
Continuous
 62
    31
100
AcDbLine
 10
-49.13301270189221
 20
12.44756073373911
 30
0.0
 11
-42.09074772881112
 21
0.249999999999996
 31
0.0
  0
LINE
  5
79
330
1F
100
AcDbEntity
  8
0
  6
Continuous
 62
   100
100
AcDbLine
 10
-48.09999999999999
 20
38.59999999999999
 30
0.0
 11
-48.6
 21
38.09999999999997
 31
0.0
  0
LINE
  5
7A
330
1F
100
AcDbEntity
  8
0
  6
Continuous
 62
   100
100
AcDbLine
 10
-0.600000000000001
 20
38.09999999999999
 30
0.0
 11
-1.099999999999998
 21
38.59999999999999
 31
0.0
  0
LINE
  5
7B
330
1F
100
AcDbEntity
  8
0
  6
Continuous
 62
    64
100
AcDbLine
 10
0.0
 20
105.6999999999996
 30
0.0
 11
3.700000000000003
 21
105.6999999999996
 31
0.0
  0
LINE
  5
7C
330
1F
100
AcDbEntity
  8
0
  6
Continuous
 62
    64
100
AcDbLine
 10
0.0
 20
58.59999999999999
 30
0.0
 11
4.200000000000003
 21
58.59999999999999
 31
0.0
  0
LINE
  5
7D
330
1F
100
AcDbEntity
  8
0
  6
Continuous
 62
    64
100
AcDbLine
 10
0.0
 20
132.1999999999996
 30
0.0
 11
0.0
 21
105.6999999999996
 31
0.0
  0
LINE
  5
7E
330
1F
100
AcDbEntity
  8
0
  6
Continuous
 62
   100
100
AcDbLine
 10
-48.09999999999999
 20
38.59999999999999
 30
0.0
 11
-1.09999999999998
 21
38.59999999999999
 31
0.0
  0
LINE
  5
7F
330
1F
100
AcDbEntity
  8
0
  6
Continuous
 62
    31
100
AcDbLine
 10
-48.59999999999999
 20
38.59999999999999
 30
0.0
 11
-0.599999999999994
 21
38.59999999999999
 31
0.0
  0
LINE
  5
80
330
1F
100
AcDbEntity
  8
0
  6
Continuous
 62
   100
100
AcDbLine
 10
69.34315172912517
 20
55.79999999999998
 30
0.0
 11
69.34315172912517
 21
55.59999999999999
 31
0.0
  0
LINE
  5
81
330
1F
100
AcDbEntity
  8
0
  6
Continuous
 62
   100
100
AcDbLine
 10
31.34315172912517
 20
55.79999999999998
 30
0.0
 11
31.34315172912517
 21
55.59999999999999
 31
0.0
  0
LINE
  5
82
330
1F
100
AcDbEntity
  8
0
  6
Continuous
 62
   100
100
AcDbLine
 10
69.34315172912517
 20
55.59999999999999
 30
0.0
 11
31.34315172912517
 21
55.59999999999999
 31
0.0
  0
LINE
  5
83
330
1F
100
AcDbEntity
  8
0
  6
Continuous
 62
    31
100
AcDbLine
 10
69.94315172912519
 20
78.1
 30
0.0
 11
69.94315172912519
 21
55.79999999999998
 31
0.0
  0
LINE
  5
84
330
1F
100
AcDbEntity
  8
0
  6
Continuous
 62
    31
100
AcDbLine
 10
69.44315172912519
 20
78.6
 30
0.0
 11
31.24315172912515
 21
78.6
 31
0.0
  0
LINE
  5
85
330
1F
100
AcDbEntity
  8
0
  6
Continuous
 62
    31
100
AcDbLine
 10
69.94315172912519
 20
55.79999999999998
 30
0.0
 11
30.74315172912515
 21
55.79999999999998
 31
0.0
  0
LINE
  5
86
330
1F
100
AcDbEntity
  8
0
  6
Continuous
 62
    31
100
AcDbLine
 10
30.74315172912515
 20
78.1
 30
0.0
 11
30.74315172912515
 21
55.79999999999998
 31
0.0
  0
LINE
  5
87
330
1F
100
AcDbEntity
  8
0
  6
Continuous
 62
   220
100
AcDbLine
 10
43.34315172912517
 20
58.59999999999999
 30
0.0
 11
31.34315172912517
 21
58.59999999999999
 31
0.0
  0
LINE
  5
88
330
1F
100
AcDbEntity
  8
0
  6
Continuous
 62
     3
100
AcDbLine
 10
-48.59999999999999
 20
55.59999999999999
 30
0.0
 11
-0.599999999999994
 21
55.59999999999999
 31
0.0
  0
LINE
  5
89
330
1F
100
AcDbEntity
  8
0
  6
Continuous
 62
    31
100
AcDbLine
 10
-0.599999999999994
 20
0.599999999999994
 30
0.0
 11
-0.599999999999994
 21
38.59999999999999
 31
0.0
  0
LINE
  5
8A
330
1F
100
AcDbEntity
  8
0
  6
Continuous
 62
   100
100
AcDbLine
 10
-48.59999999999999
 20
12.7243556529821
 30
0.0
 11
-48.59999999999999
 21
38.09999999999998
 31
0.0
  0
LINE
  5
8B
330
1F
100
AcDbEntity
  8
0
  6
Continuous
 62
    64
100
AcDbLine
 10
57.34315172912471
 20
74.6
 30
0.0
 11
30.84315172912471
 21
74.6
 31
0.0
  0
LINE
  5
8C
330
1F
100
AcDbEntity
  8
0
  6
Continuous
 62
    64
100
AcDbLine
 10
30.84315172912471
 20
74.6
 30
0.0
 11
30.84315172912471
 21
58.59999999999999
 31
0.0
  0
LINE
  5
8D
330
1F
100
AcDbEntity
  8
0
  6
Continuous
 62
    64
100
AcDbLine
 10
57.34315172912471
 20
58.59999999999999
 30
0.0
 11
30.84315172912471
 21
58.59999999999999
 31
0.0
  0
LINE
  5
8E
330
1F
100
AcDbEntity
  8
0
  6
Continuous
 62
   100
100
AcDbLine
 10
-0.599999999999994
 20
1.099999999999994
 30
0.0
 11
-0.599999999999994
 21
38.09999999999999
 31
0.0
  0
LINE
  5
8F
330
1F
100
AcDbEntity
  8
0
  6
Continuous
 62
    31
100
AcDbLine
 10
-41.59999999999991
 20
0.599999999999994
 30
0.0
 11
-0.599999999999994
 21
0.599999999999994
 31
0.0
  0
LINE
  5
90
330
1F
100
AcDbEntity
  8
0
  6
Continuous
 62
    31
100
AcDbLine
 10
-49.19999999999999
 20
78.1
 30
0.0
 11
-49.19999999999999
 21
55.79999999999998
 31
0.0
  0
LINE
  5
91
330
1F
100
AcDbEntity
  8
0
  6
Continuous
 62
    31
100
AcDbLine
 10
0.0
 20
78.1
 30
0.0
 11
0.0
 21
55.79999999999998
 31
0.0
  0
LINE
  5
92
330
1F
100
AcDbEntity
  8
0
  6
Continuous
 62
     3
100
AcDbLine
 10
-48.59999999999999
 20
55.79999999999998
 30
0.0
 11
-48.59999999999999
 21
55.59999999999999
 31
0.0
  0
LINE
  5
93
330
1F
100
AcDbEntity
  8
0
  6
Continuous
 62
   100
100
AcDbLine
 10
-48.59999999999993
 20
12.72435565298213
 30
0.0
 11
-41.59999999999993
 21
0.599999999999987
 31
0.0
  0
LINE
  5
94
330
1F
100
AcDbEntity
  8
0
  6
Continuous
 62
   100
100
AcDbLine
 10
-41.59999999999999
 20
0.599999999999994
 30
0.0
 11
-1.099999999999994
 21
0.599999999999994
 31
0.0
  0
LINE
  5
95
330
1F
100
AcDbEntity
  8
0
  6
Continuous
 62
    31
100
AcDbLine
 10
72.87
 20
113.1999999999996
 30
0.0
 11
72.87
 21
111.1999999999996
 31
0.0
  0
LINE
  5
96
330
1F
100
AcDbEntity
  8
0
  6
Continuous
 62
     3
100
AcDbLine
 10
-0.599999999999994
 20
55.79999999999998
 30
0.0
 11
-0.599999999999994
 21
55.59999999999999
 31
0.0
  0
LINE
  5
97
330
1F
100
AcDbEntity
  8
0
  6
Continuous
 62
    20
100
AcDbLine
 10
4.200000000000003
 20
121.6999999999996
 30
0.0
 11
5.0
 21
121.6999999999996
 31
0.0
  0
LINE
  5
98
330
1F
100
AcDbEntity
  8
0
  6
Continuous
 62
    64
100
AcDbLine
 10
4.200000000000003
 20
131.6999999999995
 30
0.0
 11
4.200000000000003
 21
106.1999999999996
 31
0.0
  0
LINE
  5
99
330
1F
100
AcDbEntity
  8
0
  6
Continuous
 62
    20
100
AcDbLine
 10
4.200000000000003
 20
123.6999999999996
 30
0.0
 11
5.0
 21
123.6999999999996
 31
0.0
  0
LINE
  5
9A
330
1F
100
AcDbEntity
  8
0
  6
Continuous
 62
    64
100
AcDbLine
 10
0.0
 20
74.6
 30
0.0
 11
4.200000000000003
 21
74.6
 31
0.0
  0
LINE
  5
9B
330
1F
100
AcDbEntity
  8
0
  6
Continuous
 62
    64
100
AcDbLine
 10
0.0
 20
132.1999999999996
 30
0.0
 11
3.700000000000003
 21
132.1999999999996
 31
0.0
  0
LINE
  5
9C
330
1F
100
AcDbEntity
  8
0
  6
Continuous
 62
    64
100
AcDbLine
 10
4.200000000000003
 20
74.6
 30
0.0
 11
4.200000000000003
 21
58.59999999999999
 31
0.0
  0
LINE
  5
9D
330
1F
100
AcDbEntity
  8
0
  6
Continuous
 62
    20
100
AcDbLine
 10
5.0
 20
123.6999999999996
 30
0.0
 11
5.0
 21
121.6999999999996
 31
0.0
  0
LINE
  5
9E
330
1F
100
AcDbEntity
  8
0
  6
Continuous
 62
    31
100
AcDbLine
 10
71.87
 20
112.1999999999996
 30
0.0
 11
73.87
 21
112.1999999999996
 31
0.0
  0
LINE
  5
9F
330
1F
100
AcDbEntity
  8
0
  6
Continuous
 62
    64
100
AcDbLine
 10
56.84315172912471
 20
74.6
 30
0.0
 11
56.84315172912471
 21
58.59999999999999
 31
0.0
  0
LINE
  5
A0
330
1F
100
AcDbEntity
  8
0
  6
Continuous
 62
    31
100
AcDbLine
 10
-48.69999999999999
 20
78.6
 30
0.0
 11
-0.5
 21
78.6
 31
0.0
  0
LINE
  5
A1
330
1F
100
AcDbEntity
  8
0
  6
Continuous
 62
    64
100
AcDbLine
 10
31.34315172912471
 20
74.6
 30
0.0
 11
31.34315172912471
 21
58.59999999999999
 31
0.0
  0
LINE
  5
A2
330
1F
100
AcDbEntity
  8
0
  6
Continuous
 62
    64
100
AcDbLine
 10
3.69999999999996
 20
132.1999999999995
 30
0.0
 11
4.199999999999946
 21
131.6999999999995
 31
0.0
  0
LINE
  5
A3
330
1F
100
AcDbEntity
  8
0
  6
Continuous
 62
    64
100
AcDbLine
 10
4.200000000000074
 20
106.1999999999995
 30
0.0
 11
3.700000000000067
 21
105.6999999999995
 31
0.0
  0
LINE
  5
A4
330
1F
100
AcDbEntity
  8
0
  6
Continuous
 62
    64
100
AcDbLine
 10
55.34315172912471
 20
67.75
 30
0.0
 11
47.84315172912471
 21
67.75
 31
0.0
  0
LINE
  5
A5
330
1F
100
AcDbEntity
  8
0
  6
Continuous
 62
    64
100
AcDbLine
 10
55.34315172912471
 20
65.44999999999999
 30
0.0
 11
47.84315172912471
 21
65.44999999999999
 31
0.0
  0
LINE
  5
A6
330
1F
100
AcDbEntity
  8
0
  6
Continuous
 62
     3
100
AcDbLine
 10
-51.26025403784442
 20
-2.667949192434797
 30
0.0
 11
-44.33205080756885
 21
1.332050807565224
 31
0.0
  0
LINE
  5
A7
330
1F
100
AcDbEntity
  8
0
  6
Continuous
 62
   100
100
AcDbLine
 10
-1.099999999999982
 20
0.6
 30
0.0
 11
-0.599999999999975
 21
1.100000000000001
 31
0.0
  0
LINE
  5
A8
330
1F
100
AcDbEntity
  8
0
  6
Continuous
 62
     3
100
AcDbLine
 10
-51.26025403784441
 20
147.4679491924347
 30
0.0
 11
-56.2602540378444
 21
138.8076951545904
 31
0.0
  0
LINE
  5
A9
330
1F
100
AcDbEntity
  8
0
  6
Continuous
 62
     3
100
AcDbLine
 10
-44.33205080756881
 20
143.4679491924348
 30
0.0
 11
-49.33205080756879
 21
134.8076951545904
 31
0.0
  0
LINE
  5
AA
330
1F
100
AcDbEntity
  8
0
  6
Continuous
 62
     3
100
AcDbLine
 10
-56.2602540378444
 20
138.8076951545904
 30
0.0
 11
-49.33205080756889
 21
134.8076951545904
 31
0.0
  0
LINE
  5
AB
330
1F
100
AcDbEntity
  8
0
  6
Continuous
 62
    31
100
AcDbLine
 10
-49.19999999999999
 20
55.79999999999998
 30
0.0
 11
0.0
 21
55.79999999999998
 31
0.0
  0
LINE
  5
AC
330
1F
100
AcDbEntity
  8
0
  6
Continuous
 62
    31
100
AcDbLine
 10
-41.65773502691889
 20
0.0
 30
0.0
 11
-0.5
 21
0.0
 31
0.0
  0
LINE
  5
AD
330
1F
100
AcDbEntity
  8
0
  6
Continuous
 62
     3
100
AcDbLine
 10
-51.51025403784443
 20
-2.234936490542562
 30
0.0
 11
-44.58205080756888
 21
1.765063509457445
 31
0.0
  0
LINE
  5
AE
330
1F
100
AcDbEntity
  8
0
  6
Continuous
 62
    31
100
AcDbLine
 10
-48.59999999999999
 20
12.72435565298225
 30
0.0
 11
-48.59999999999999
 21
38.59999999999999
 31
0.0
  0
LINE
  5
AF
330
1F
100
AcDbEntity
  8
0
  6
Continuous
 62
     4
100
AcDbLine
 10
-61.28653347947325
 20
152.1019237886503
 30
0.0
 11
-54.79134295108994
 21
148.3519237886503
 31
0.0
  0
LINE
  5
B0
330
1F
100
AcDbEntity
  8
0
  6
Continuous
 62
     4
100
AcDbLine
 10
-43.7160254037844
 20
142.5349364905426
 30
0.0
 11
-48.21602540378441
 21
134.7407078564826
 31
0.0
  0
LINE
  5
B1
330
1F
100
AcDbEntity
  8
0
  6
Continuous
 62
     4
100
AcDbLine
 10
-54.54134295108992
 20
148.7849364905425
 30
0.0
 11
-43.71602540378444
 21
142.5349364905426
 31
0.0
  0
LINE
  5
B2
330
1F
100
AcDbEntity
  8
0
  6
Continuous
 62
    31
100
AcDbLine
 10
-49.19999999999999
 20
12.69756073373914
 30
0.0
 11
-49.19999999999999
 21
38.69999999999999
 31
0.0
  0
LINE
  5
B3
330
1F
100
AcDbEntity
  8
0
  6
Continuous
 62
     4
100
AcDbLine
 10
-59.0413429510899
 20
140.9907078564826
 30
0.0
 11
-48.21602540378441
 21
134.7407078564826
 31
0.0
  0
LINE
  5
B4
330
1F
100
AcDbEntity
  8
0
  6
Continuous
 62
     4
100
AcDbLine
 10
-54.54134295108987
 20
148.7849364905425
 30
0.0
 11
-59.04134295108987
 21
140.9907078564826
 31
0.0
  0
LINE
  5
B5
330
1F
100
AcDbEntity
  8
0
  6
Continuous
 62
     4
100
AcDbLine
 10
-65.28653347947322
 20
145.1737205583748
 30
0.0
 11
-58.79134295108992
 21
141.4237205583748
 31
0.0
  0
LINE
  5
B6
330
1F
100
AcDbEntity
  8
0
  6
Continuous
 62
     3
100
AcDbLine
 10
-51.51025403784438
 20
147.0349364905426
 30
0.0
 11
-44.58205080756887
 21
143.0349364905426
 31
0.0
  0
LINE
  5
B7
330
1F
100
AcDbEntity
  8
0
  6
Continuous
 62
     3
100
AcDbLine
 10
-51.26025403784439
 20
147.4679491924348
 30
0.0
 11
-44.33205080756888
 21
143.4679491924348
 31
0.0
  0
LINE
  5
B8
330
1F
100
AcDbEntity
  8
0
  6
Continuous
 62
     3
100
AcDbLine
 10
-56.01025403784437
 20
139.2407078564826
 30
0.0
 11
-49.08205080756886
 21
135.2407078564826
 31
0.0
  0
LINE
  5
B9
330
1F
100
AcDbEntity
  8
0
  6
Continuous
 62
     3
100
AcDbLine
 10
-47.89173216949938
 20
135.1308273395614
 30
0.0
 11
-47.61961524226911
 21
134.9737205583739
 31
0.0
  0
LINE
  5
BA
330
1F
100
AcDbEntity
  8
0
  6
Continuous
 62
     3
100
AcDbLine
 10
-43.89173216949939
 20
142.0590305698369
 30
0.0
 11
-43.61961524226911
 21
141.9019237886494
 31
0.0
  0
LINE
  5
BB
330
1F
100
AcDbEntity
  8
0
  6
Continuous
 62
     4
100
AcDbLine
 10
-65.28653347947323
 20
-0.373720558374764
 30
0.0
 11
-58.79134295108994
 21
3.376279441625229
 31
0.0
  0
LINE
  5
BC
330
1F
100
AcDbEntity
  8
0
  6
Continuous
 62
     4
100
AcDbLine
 10
-54.54134295108989
 20
-3.984936490542498
 30
0.0
 11
-59.04134295108985
 21
3.809292143517407
 31
0.0
  0
LINE
  5
BD
330
1F
100
AcDbEntity
  8
0
  6
Continuous
 62
    31
100
AcDbLine
 10
-48.59999999999999
 20
12.72435565298223
 30
0.0
 11
-41.59999999999992
 21
0.599999999999991
 31
0.0
  0
LINE
  5
BE
330
1F
100
AcDbEntity
  8
0
  6
Continuous
 62
    31
100
AcDbLine
 10
0.0
 20
0.5
 30
0.0
 11
0.0
 21
38.69999999999999
 31
0.0
  0
LINE
  5
BF
330
1F
100
AcDbEntity
  8
0
  6
CENTER
 62
     7
100
AcDbLine
 10
-95.8
 20
66.6
 30
0.0
 11
-85.07869535525691
 21
66.6
 31
0.0
  0
LINE
  5
C0
330
1F
100
AcDbEntity
  8
0
  6
Continuous
 62
    31
100
AcDbLine
 10
-141.657735026919
 20
144.8
 30
0.0
 11
-100.5
 21
144.8
 31
0.0
  0
LINE
  5
C1
330
1F
100
AcDbEntity
  8
0
  6
Continuous
 62
    31
100
AcDbLine
 10
-148.7
 20
105.6
 30
0.0
 11
-100.5
 21
105.6
 31
0.0
  0
LINE
  5
C2
330
1F
100
AcDbEntity
  8
0
  6
Continuous
 62
    31
100
AcDbLine
 10
-149.2
 20
132.102439266261
 30
0.0
 11
-149.2
 21
106.1
 31
0.0
  0
LINE
  5
C3
330
1F
100
AcDbEntity
  8
0
  6
Continuous
 62
    31
100
AcDbLine
 10
-149.1330127018922
 20
132.352439266261
 30
0.0
 11
-142.0907477288112
 21
144.55
 31
0.0
  0
LINE
  5
C4
330
1F
100
AcDbEntity
  8
0
  6
Continuous
 62
    31
100
AcDbLine
 10
-100.0
 20
144.3
 30
0.0
 11
-100.0
 21
106.1
 31
0.0
  0
LINE
  5
C5
330
1F
100
AcDbEntity
  8
0
  6
Continuous
 62
     3
100
AcDbLine
 10
-148.6
 20
55.59999999999999
 30
0.0
 11
-100.6
 21
55.59999999999999
 31
0.0
  0
LINE
  5
C6
330
1F
100
AcDbEntity
  8
0
  6
Continuous
 62
    31
100
AcDbLine
 10
-149.2
 20
78.1
 30
0.0
 11
-149.2
 21
55.79999999999998
 31
0.0
  0
LINE
  5
C7
330
1F
100
AcDbEntity
  8
0
  6
Continuous
 62
    31
100
AcDbLine
 10
-100.0
 20
78.1
 30
0.0
 11
-100.0
 21
55.79999999999998
 31
0.0
  0
LINE
  5
C8
330
1F
100
AcDbEntity
  8
0
  6
Continuous
 62
     3
100
AcDbLine
 10
-148.6
 20
55.79999999999998
 30
0.0
 11
-148.6
 21
55.59999999999999
 31
0.0
  0
LINE
  5
C9
330
1F
100
AcDbEntity
  8
0
  6
Continuous
 62
     3
100
AcDbLine
 10
-100.6
 20
55.79999999999998
 30
0.0
 11
-100.6
 21
55.59999999999999
 31
0.0
  0
LINE
  5
CA
330
1F
100
AcDbEntity
  8
0
  6
Continuous
 62
    31
100
AcDbLine
 10
-148.7
 20
78.6
 30
0.0
 11
-100.5
 21
78.6
 31
0.0
  0
LINE
  5
CB
330
1F
100
AcDbEntity
  8
0
  6
Continuous
 62
     3
100
AcDbLine
 10
-151.2602540378444
 20
147.4679491924347
 30
0.0
 11
-156.2602540378444
 21
138.8076951545903
 31
0.0
  0
LINE
  5
CC
330
1F
100
AcDbEntity
  8
0
  6
Continuous
 62
     3
100
AcDbLine
 10
-144.3320508075688
 20
143.4679491924348
 30
0.0
 11
-149.3320508075688
 21
134.8076951545904
 31
0.0
  0
LINE
  5
CD
330
1F
100
AcDbEntity
  8
0
  6
Continuous
 62
     3
100
AcDbLine
 10
-156.2602540378444
 20
138.8076951545904
 30
0.0
 11
-149.3320508075689
 21
134.8076951545904
 31
0.0
  0
LINE
  5
CE
330
1F
100
AcDbEntity
  8
0
  6
Continuous
 62
    31
100
AcDbLine
 10
-149.2
 20
55.79999999999998
 30
0.0
 11
-100.0
 21
55.79999999999998
 31
0.0
  0
LINE
  5
CF
330
1F
100
AcDbEntity
  8
0
  6
Continuous
 62
     4
100
AcDbLine
 10
-161.2865334794732
 20
152.1019237886503
 30
0.0
 11
-154.7913429510899
 21
148.3519237886503
 31
0.0
  0
LINE
  5
D0
330
1F
100
AcDbEntity
  8
0
  6
Continuous
 62
     4
100
AcDbLine
 10
-143.7160254037844
 20
142.5349364905426
 30
0.0
 11
-148.2160254037844
 21
134.7407078564826
 31
0.0
  0
LINE
  5
D1
330
1F
100
AcDbEntity
  8
0
  6
Continuous
 62
     4
100
AcDbLine
 10
-154.5413429510899
 20
148.7849364905425
 30
0.0
 11
-143.7160254037844
 21
142.5349364905425
 31
0.0
  0
LINE
  5
D2
330
1F
100
AcDbEntity
  8
0
  6
Continuous
 62
     4
100
AcDbLine
 10
-159.0413429510899
 20
140.9907078564826
 30
0.0
 11
-148.2160254037844
 21
134.7407078564826
 31
0.0
  0
LINE
  5
D3
330
1F
100
AcDbEntity
  8
0
  6
Continuous
 62
     4
100
AcDbLine
 10
-154.5413429510899
 20
148.7849364905425
 30
0.0
 11
-159.0413429510898
 21
140.9907078564826
 31
0.0
  0
LINE
  5
D4
330
1F
100
AcDbEntity
  8
0
  6
Continuous
 62
     4
100
AcDbLine
 10
-165.2865334794732
 20
145.1737205583748
 30
0.0
 11
-158.7913429510899
 21
141.4237205583748
 31
0.0
  0
LINE
  5
D5
330
1F
100
AcDbEntity
  8
0
  6
Continuous
 62
     3
100
AcDbLine
 10
-151.5102540378444
 20
147.0349364905425
 30
0.0
 11
-144.5820508075689
 21
143.0349364905425
 31
0.0
  0
LINE
  5
D6
330
1F
100
AcDbEntity
  8
0
  6
Continuous
 62
     3
100
AcDbLine
 10
-151.2602540378444
 20
147.4679491924348
 30
0.0
 11
-144.3320508075689
 21
143.4679491924348
 31
0.0
  0
LINE
  5
D7
330
1F
100
AcDbEntity
  8
0
  6
Continuous
 62
     3
100
AcDbLine
 10
-156.0102540378444
 20
139.2407078564826
 30
0.0
 11
-149.0820508075688
 21
135.2407078564826
 31
0.0
  0
LINE
  5
D8
330
1F
100
AcDbEntity
  8
0
  6
Continuous
 62
     3
100
AcDbLine
 10
-147.8917321694994
 20
135.1308273395614
 30
0.0
 11
-147.6196152422691
 21
134.9737205583739
 31
0.0
  0
LINE
  5
D9
330
1F
100
AcDbEntity
  8
0
  6
Continuous
 62
     3
100
AcDbLine
 10
-143.8917321694994
 20
142.0590305698369
 30
0.0
 11
-143.6196152422691
 21
141.9019237886494
 31
0.0
  0
LINE
  5
DA
330
1F
100
AcDbEntity
  8
0
  6
Continuous
 62
    20
100
AcDbLine
 10
-100.0
 20
118.4022172922489
 30
0.0
 11
-98.5
 21
118.4022172922489
 31
0.0
  0
LINE
  5
DB
330
1F
100
AcDbEntity
  8
0
  6
Continuous
 62
     4
100
AcDbLine
 10
-94.69999999999999
 20
117.1522172922489
 30
0.0
 11
-94.69999999999999
 21
107.1522172922489
 31
0.0
  0
LINE
  5
DC
330
1F
100
AcDbEntity
  8
0
  6
Continuous
 62
    20
100
AcDbLine
 10
-100.0
 20
118.4022172922489
 30
0.0
 11
-100.0
 21
105.9022172922489
 31
0.0
  0
LINE
  5
DD
330
1F
100
AcDbEntity
  8
0
  6
Continuous
 62
    20
100
AcDbLine
 10
-98.5
 20
118.4022172922489
 30
0.0
 11
-98.5
 21
105.9022172922489
 31
0.0
  0
LINE
  5
DE
330
1F
100
AcDbEntity
  8
0
  6
Continuous
 62
     4
100
AcDbLine
 10
-98.5
 20
107.1522172922489
 30
0.0
 11
-94.69999999999999
 21
107.1522172922489
 31
0.0
  0
LINE
  5
DF
330
1F
100
AcDbEntity
  8
0
  6
Continuous
 62
     4
100
AcDbLine
 10
-98.5
 20
117.1522172922489
 30
0.0
 11
-94.69999999999999
 21
117.1522172922489
 31
0.0
  0
LINE
  5
E0
330
1F
100
AcDbEntity
  8
0
  6
Continuous
 62
    20
100
AcDbLine
 10
-100.0
 20
105.9022172922489
 30
0.0
 11
-98.5
 21
105.9022172922489
 31
0.0
  0
LINE
  5
E1
330
1F
100
AcDbEntity
  8
0
  6
Continuous
 62
     4
100
AcDbLine
 10
-98.5
 20
61.6598758491332
 30
0.0
 11
-94.7
 21
61.6598758491332
 31
0.0
  0
LINE
  5
E2
330
1F
100
AcDbEntity
  8
0
  6
Continuous
 62
     4
100
AcDbLine
 10
-98.5
 20
71.6598758491332
 30
0.0
 11
-94.7
 21
71.6598758491332
 31
0.0
  0
LINE
  5
E3
330
1F
100
AcDbEntity
  8
0
  6
Continuous
 62
    20
100
AcDbLine
 10
-100.0
 20
74.60000000000011
 30
0.0
 11
-98.5
 21
74.60000000000011
 31
0.0
  0
LINE
  5
E4
330
1F
100
AcDbEntity
  8
0
  6
Continuous
 62
    20
100
AcDbLine
 10
-100.0
 20
58.60000000000011
 30
0.0
 11
-98.5
 21
58.60000000000011
 31
0.0
  0
LINE
  5
E5
330
1F
100
AcDbEntity
  8
0
  6
Continuous
 62
    20
100
AcDbLine
 10
-98.5
 20
74.60000000000011
 30
0.0
 11
-98.5
 21
58.60000000000011
 31
0.0
  0
LINE
  5
E6
330
1F
100
AcDbEntity
  8
0
  6
Continuous
 62
     4
100
AcDbLine
 10
-94.7
 20
71.6598758491332
 30
0.0
 11
-94.7
 21
61.6598758491332
 31
0.0
  0
LINE
  5
E7
330
1F
100
AcDbEntity
  8
0
  6
CENTER
 62
     7
100
AcDbLine
 10
-95.8
 20
112.1522172922489
 30
0.0
 11
-85.07869535525691
 21
112.1522172922489
 31
0.0
  0
ARC
  5
E8
330
1F
100
AcDbEntity
  8
0
  6
Continuous
 62
    31
100
AcDbCircle
 10
-41.65773502691889
 20
0.5
 30
0.0
 40
0.5
100
AcDbArc
 50
209.9999999999998
 51
270.0
  0
ARC
  5
E9
330
1F
100
AcDbEntity
  8
0
  6
Continuous
 62
    31
100
AcDbCircle
 10
-48.69999999999999
 20
38.69999999999999
 30
0.0
 40
0.5
100
AcDbArc
 50
90.0
 51
180.0
  0
ARC
  5
EA
330
1F
100
AcDbEntity
  8
0
  6
Continuous
 62
    31
100
AcDbCircle
 10
-0.5
 20
38.69999999999999
 30
0.0
 40
0.5
100
AcDbArc
 50
0.0
 51
90.00000000000001
  0
ARC
  5
EB
330
1F
100
AcDbEntity
  8
0
  6
Continuous
 62
    31
100
AcDbCircle
 10
-0.5
 20
0.5
 30
0.0
 40
0.5
100
AcDbArc
 50
270.0
 51
0.0
  0
CIRCLE
  5
EC
330
1F
100
AcDbEntity
  8
0
  6
Continuous
 62
   100
100
AcDbCircle
 10
-19.59999999999999
 20
3.599999999999994
 30
0.0
 40
2.0
  0
CIRCLE
  5
ED
330
1F
100
AcDbEntity
  8
0
  6
Continuous
 62
   100
100
AcDbCircle
 10
-35.59999999999999
 20
35.59999999999999
 30
0.0
 40
2.0
  0
ARC
  5
EE
330
1F
100
AcDbEntity
  8
0
  6
Continuous
 62
    31
100
AcDbCircle
 10
-48.69999999999999
 20
106.1
 30
0.0
 40
0.5
100
AcDbArc
 50
180.0
 51
270.0
  0
ARC
  5
EF
330
1F
100
AcDbEntity
  8
0
  6
Continuous
 62
     4
100
AcDbCircle
 10
-46.91698729810776
 20
10.80929214351741
 30
0.0
 40
1.5
100
AcDbArc
 50
210.0
 51
252.8334280661678
  0
ARC
  5
F0
330
1F
100
AcDbEntity
  8
0
  6
Continuous
 62
    31
100
AcDbCircle
 10
-48.69999999999999
 20
132.102439266261
 30
0.0
 40
0.5
100
AcDbArc
 50
150.0000000000003
 51
180.0
  0
ARC
  5
F1
330
1F
100
AcDbEntity
  8
0
  6
Continuous
 62
    31
100
AcDbCircle
 10
-0.5
 20
106.1
 30
0.0
 40
0.5
100
AcDbArc
 50
270.0
 51
0.0
  0
ARC
  5
F2
330
1F
100
AcDbEntity
  8
0
  6
Continuous
 62
    31
100
AcDbCircle
 10
-0.5
 20
144.3
 30
0.0
 40
0.5
100
AcDbArc
 50
0.0
 51
90.00000000000001
  0
ARC
  5
F3
330
1F
100
AcDbEntity
  8
0
  6
Continuous
 62
    31
100
AcDbCircle
 10
-41.65773502691897
 20
144.3
 30
0.0
 40
0.5
100
AcDbArc
 50
90.00000000000001
 51
150.0000000000003
  0
ARC
  5
F4
330
1F
100
AcDbEntity
  8
0
  6
Continuous
 62
     4
100
AcDbCircle
 10
-42.41698729810778
 20
3.015063509457462
 30
0.0
 40
1.5
100
AcDbArc
 50
167.1665719338301
 51
209.9999999999999
  0
CIRCLE
  5
F5
330
1F
100
AcDbEntity
  8
0
  6
DASHED
 62
   100
100
AcDbCircle
 10
37.34315172912517
 20
66.6
 30
0.0
 40
3.024999999999551
  0
CIRCLE
  5
F6
330
1F
100
AcDbEntity
  8
0
  6
Continuous
 62
    31
100
AcDbCircle
 10
32.59315172912517
 20
72.85
 30
0.0
 40
1.0
  0
CIRCLE
  5
F7
330
1F
100
AcDbEntity
  8
0
  6
Continuous
 62
   220
100
AcDbCircle
 10
42.09315172912517
 20
60.34999999999999
 30
0.0
 40
0.8
  0
CIRCLE
  5
F8
330
1F
100
AcDbEntity
  8
0
  6
Continuous
 62
   220
100
AcDbCircle
 10
32.59315172912517
 20
72.85
 30
0.0
 40
0.8
  0
CIRCLE
  5
F9
330
1F
100
AcDbEntity
  8
0
  6
Continuous
 62
   100
100
AcDbCircle
 10
37.34315172912517
 20
66.6
 30
0.0
 40
2.499999999999545
  0
CIRCLE
  5
FA
330
1F
100
AcDbEntity
  8
0
  6
Continuous
 62
    31
100
AcDbCircle
 10
42.09315172912517
 20
60.34999999999999
 30
0.0
 40
1.0
  0
ARC
  5
FB
330
1F
100
AcDbEntity
  8
0
  6
Continuous
 62
    31
100
AcDbCircle
 10
69.44315172912519
 20
78.1
 30
0.0
 40
0.5
100
AcDbArc
 50
0.0
 51
89.99999999999997
  0
ARC
  5
FC
330
1F
100
AcDbEntity
  8
0
  6
Continuous
 62
    31
100
AcDbCircle
 10
31.24315172912515
 20
78.1
 30
0.0
 40
0.5
100
AcDbArc
 50
90.0
 51
179.9999999999999
  0
CIRCLE
  5
FD
330
1F
100
AcDbEntity
  8
0
  6
Continuous
 62
   100
100
AcDbCircle
 10
-19.59999999999999
 20
35.59999999999999
 30
0.0
 40
1.0
  0
CIRCLE
  5
FE
330
1F
100
AcDbEntity
  8
0
  6
Continuous
 62
   220
100
AcDbCircle
 10
32.59315172912517
 20
72.85
 30
0.0
 40
0.5
  0
CIRCLE
  5
FF
330
1F
100
AcDbEntity
  8
0
  6
Continuous
 62
   220
100
AcDbCircle
 10
42.09315172912517
 20
60.34999999999999
 30
0.0
 40
0.5
  0
CIRCLE
  5
100
330
1F
100
AcDbEntity
  8
0
  6
Continuous
 62
   220
100
AcDbCircle
 10
37.34315172912517
 20
66.6
 30
0.0
 40
4.0
  0
CIRCLE
  5
101
330
1F
100
AcDbEntity
  8
0
  6
Continuous
 62
    31
100
AcDbCircle
 10
37.34315172912517
 20
66.6
 30
0.0
 40
3.5
  0
ARC
  5
102
330
1F
100
AcDbEntity
  8
0
  6
Continuous
 62
    31
100
AcDbCircle
 10
-48.69999999999999
 20
12.69756073373914
 30
0.0
 40
0.5
100
AcDbArc
 50
180.0
 51
210.0000000000005
  0
CIRCLE
  5
103
330
1F
100
AcDbEntity
  8
0
  6
Continuous
 62
   100
100
AcDbCircle
 10
-19.59999999999999
 20
35.59999999999999
 30
0.0
 40
1.5
  0
CIRCLE
  5
104
330
1F
100
AcDbEntity
  8
0
  6
Continuous
 62
    64
100
AcDbCircle
 10
32.59315172912517
 20
72.85
 30
0.0
 40
1.0
  0
CIRCLE
  5
105
330
1F
100
AcDbEntity
  8
0
  6
Continuous
 62
    64
100
AcDbCircle
 10
42.09315172912517
 20
60.34999999999999
 30
0.0
 40
1.0
  0
ARC
  5
106
330
1F
100
AcDbEntity
  8
0
  6
Continuous
 62
    31
100
AcDbCircle
 10
-48.69999999999999
 20
78.1
 30
0.0
 40
0.5
100
AcDbArc
 50
90.00000000000001
 51
180.0
  0
ARC
  5
107
330
1F
100
AcDbEntity
  8
0
  6
Continuous
 62
    31
100
AcDbCircle
 10
-0.5
 20
78.1
 30
0.0
 40
0.5
100
AcDbArc
 50
0.0
 51
90.00000000000001
  0
CIRCLE
  5
108
330
1F
100
AcDbEntity
  8
0
  6
DASHED
 62
    64
100
AcDbCircle
 10
37.34315172912517
 20
66.6
 30
0.0
 40
3.499999999999545
  0
CIRCLE
  5
109
330
1F
100
AcDbEntity
  8
0
  6
Continuous
 62
    64
100
AcDbCircle
 10
43.84315172912471
 20
66.6
 30
0.0
 40
2.550000000000011
  0
CIRCLE
  5
10A
330
1F
100
AcDbEntity
  8
0
  6
Continuous
 62
    64
100
AcDbCircle
 10
43.84315172912471
 20
66.6
 30
0.0
 40
2.0
  0
ARC
  5
10B
330
1F
100
AcDbEntity
  8
0
  6
Continuous
 62
    64
100
AcDbCircle
 10
47.84315172912471
 20
66.6
 30
0.0
 40
1.15
100
AcDbArc
 50
89.99999722214925
 51
270.0000027778507
  0
CIRCLE
  5
10C
330
1F
100
AcDbEntity
  8
0
  6
Continuous
 62
   100
100
AcDbCircle
 10
47.84315172912471
 20
66.6
 30
0.0
 40
1.0
  0
ARC
  5
10D
330
1F
100
AcDbEntity
  8
0
  6
Continuous
 62
    64
100
AcDbCircle
 10
55.34315172912471
 20
66.6
 30
0.0
 40
1.15
100
AcDbArc
 50
269.9999972221493
 51
90.00000277785071
  0
CIRCLE
  5
10E
330
1F
100
AcDbEntity
  8
0
  6
Continuous
 62
   100
100
AcDbCircle
 10
-15.09999999999997
 20
26.60000000000034
 30
0.0
 40
1.0
  0
CIRCLE
  5
10F
330
1F
100
AcDbEntity
  8
0
  6
Continuous
 62
   100
100
AcDbCircle
 10
-35.59999999999999
 20
3.599999999999994
 30
0.0
 40
1.0
  0
CIRCLE
  5
110
330
1F
100
AcDbEntity
  8
0
  6
Continuous
 62
   100
100
AcDbCircle
 10
-35.59999999999999
 20
3.599999999999994
 30
0.0
 40
1.5
  0
CIRCLE
  5
111
330
1F
100
AcDbEntity
  8
0
  6
Continuous
 62
   100
100
AcDbCircle
 10
-3.599999999999994
 20
3.599999999999994
 30
0.0
 40
1.0
  0
CIRCLE
  5
112
330
1F
100
AcDbEntity
  8
0
  6
Continuous
 62
   100
100
AcDbCircle
 10
-3.599999999999994
 20
3.599999999999994
 30
0.0
 40
1.5
  0
CIRCLE
  5
113
330
1F
100
AcDbEntity
  8
0
  6
Continuous
 62
    31
100
AcDbCircle
 10
-35.59999999999999
 20
109.2000000000037
 30
0.0
 40
2.0
  0
CIRCLE
  5
114
330
1F
100
AcDbEntity
  8
0
  6
Continuous
 62
    31
100
AcDbCircle
 10
-19.59999999999999
 20
141.2000000000037
 30
0.0
 40
2.0
  0
CIRCLE
  5
115
330
1F
100
AcDbEntity
  8
0
  6
Continuous
 62
    31
100
AcDbCircle
 10
60.84315172912471
 20
66.6
 30
0.0
 40
2.0
  0
ARC
  5
116
330
1F
100
AcDbEntity
  8
0
  6
Continuous
 62
     4
100
AcDbCircle
 10
-42.41698729810778
 20
141.7849364905425
 30
0.0
 40
1.5
100
AcDbArc
 50
150.0000000000001
 51
192.8334280661699
  0
ARC
  5
117
330
1F
100
AcDbEntity
  8
0
  6
Continuous
 62
     4
100
AcDbCircle
 10
-46.91698729810776
 20
133.9907078564826
 30
0.0
 40
1.5
100
AcDbArc
 50
107.1665719338322
 51
150.0000000000001
  0
ARC
  5
118
330
1F
100
AcDbEntity
  8
0
  6
Continuous
 62
    31
100
AcDbCircle
 10
-148.7
 20
106.1
 30
0.0
 40
0.5
100
AcDbArc
 50
180.0
 51
270.0
  0
ARC
  5
119
330
1F
100
AcDbEntity
  8
0
  6
Continuous
 62
    31
100
AcDbCircle
 10
-148.7
 20
132.102439266261
 30
0.0
 40
0.5
100
AcDbArc
 50
150.0000000000003
 51
180.0
  0
ARC
  5
11A
330
1F
100
AcDbEntity
  8
0
  6
Continuous
 62
    31
100
AcDbCircle
 10
-100.5
 20
106.1
 30
0.0
 40
0.5
100
AcDbArc
 50
270.0
 51
0.0
  0
ARC
  5
11B
330
1F
100
AcDbEntity
  8
0
  6
Continuous
 62
    31
100
AcDbCircle
 10
-100.5
 20
144.3
 30
0.0
 40
0.5
100
AcDbArc
 50
0.0
 51
90.00000000000001
  0
ARC
  5
11C
330
1F
100
AcDbEntity
  8
0
  6
Continuous
 62
    31
100
AcDbCircle
 10
-141.657735026919
 20
144.3
 30
0.0
 40
0.5
100
AcDbArc
 50
90.00000000000001
 51
150.0000000000003
  0
ARC
  5
11D
330
1F
100
AcDbEntity
  8
0
  6
Continuous
 62
    31
100
AcDbCircle
 10
-148.7
 20
78.1
 30
0.0
 40
0.5
100
AcDbArc
 50
90.00000000000001
 51
180.0
  0
ARC
  5
11E
330
1F
100
AcDbEntity
  8
0
  6
Continuous
 62
    31
100
AcDbCircle
 10
-100.5
 20
78.1
 30
0.0
 40
0.5
100
AcDbArc
 50
0.0
 51
90.00000000000001
  0
CIRCLE
  5
11F
330
1F
100
AcDbEntity
  8
0
  6
Continuous
 62
    31
100
AcDbCircle
 10
-135.6
 20
109.2000000000037
 30
0.0
 40
2.0
  0
CIRCLE
  5
120
330
1F
100
AcDbEntity
  8
0
  6
Continuous
 62
    31
100
AcDbCircle
 10
-119.6
 20
141.2000000000037
 30
0.0
 40
2.0
  0
ARC
  5
121
330
1F
100
AcDbEntity
  8
0
  6
Continuous
 62
     4
100
AcDbCircle
 10
-142.4169872981078
 20
141.7849364905425
 30
0.0
 40
1.5
100
AcDbArc
 50
150.0000000000001
 51
192.8334280661699
  0
ARC
  5
122
330
1F
100
AcDbEntity
  8
0
  6
Continuous
 62
     4
100
AcDbCircle
 10
-146.9169872981078
 20
133.9907078564826
 30
0.0
 40
1.5
100
AcDbArc
 50
107.1665719338322
 51
150.0000000000001
  0
SPLINE
  5
123
330
1F
100
AcDbEntity
  8
0
  6
Continuous
 62
     4
100
AcDbSpline
210
0.0
220
0.0
230
1.0
 70
     8
 71
     3
 72
     9
 73
     5
 74
     3
 42
0.0000000001
 43
0.0000000001
 44
0.0000000001
 12
-0.965925826289068
 22
0.2588190451025222
 32
0.0
 13
0.2588190451025223
 23
0.965925826289068
 33
0.0
 40
0.0
 40
0.0
 40
0.0
 40
0.0
 40
2.236067977499768
 40
4.472135954999548
 40
4.472135954999548
 40
4.472135954999548
 40
4.472135954999548
 10
-63.28653347947323
 20
-3.837822173512535
 30
0.0
 10
-64.00649208240823
 20
-3.644909847272262
 30
0.0
 10
-65.56214882245446
 20
-2.842248227596298
 30
0.0
 10
-65.47944580571348
 20
-1.093679161309799
 30
0.0
 10
-65.2865334794732
 20
-0.3737205583747993
 30
0.0
 11
-63.28653347947323
 21
-3.837822173512535
 31
0.0
 11
-65.15255888325765
 21
-2.605771365943667
 31
0.0
 11
-65.2865334794732
 21
-0.3737205583747993
 31
0.0
  0
SPLINE
  5
124
330
1F
100
AcDbEntity
  8
0
  6
Continuous
 62
     4
100
AcDbSpline
210
0.0
220
0.0
230
1.0
 70
     8
 71
     3
 72
    11
 73
     7
 74
     5
 42
0.0000000001
 43
0.0000000001
 44
0.0000000001
 12
-0.965925826289068
 22
0.2588190451025222
 32
0.0
 13
-0.965925826289068
 23
0.2588190451025223
 33
0.0
 40
0.0
 40
0.0
 40
0.0
 40
0.0
 40
2.236067977499768
 40
4.472135954999578
 40
6.708203932499357
 40
8.944271909999125
 40
8.944271909999125
 40
8.944271909999125
 40
8.944271909999125
 10
-61.28653347947323
 20
-7.301923788650299
 30
0.0
 10
-62.00649208240823
 20
-7.109011462410026
 30
0.0
 10
-63.60545191327439
 20
-6.262256719817411
 30
0.0
 10
-63.28653347947323
 20
-3.837822173512546
 30
0.0
 10
-62.96761504567204
 20
-1.41338762720768
 30
0.0
 10
-64.56657487653821
 20
-0.5666328846150722
 30
0.0
 10
-65.2865334794732
 20
-0.3737205583747993
 30
0.0
 11
-61.28653347947323
 21
-7.301923788650299
 31
0.0
 11
-63.15255888325765
 21
-6.069872981081431
 31
0.0
 11
-63.28653347947323
 21
-3.837822173512535
 31
0.0
 11
-63.42050807568879
 21
-1.605771365943667
 31
0.0
 11
-65.2865334794732
 21
-0.3737205583747993
 31
0.0
  0
SPLINE
  5
125
330
1F
100
AcDbEntity
  8
0
  6
Continuous
 62
     4
100
AcDbSpline
210
0.0
220
0.0
230
1.0
 70
     8
 71
     3
 72
     9
 73
     5
 74
     3
 42
0.0000000001
 43
0.0000000001
 44
0.0000000001
 12
-0.965925826289068
 22
-0.2588190451025222
 32
0.0
 13
0.2588190451025223
 23
-0.965925826289068
 33
0.0
 40
0.0
 40
0.0
 40
0.0
 40
0.0
 40
2.236067977499768
 40
4.472135954999548
 40
4.472135954999548
 40
4.472135954999548
 40
4.472135954999548
 10
-63.28653347947323
 20
148.6378221735125
 30
0.0
 10
-64.00649208240823
 20
148.4449098472723
 30
0.0
 10
-65.56214882245446
 20
147.6422482275963
 30
0.0
 10
-65.47944580571348
 20
145.8936791613098
 30
0.0
 10
-65.2865334794732
 20
145.1737205583748
 30
0.0
 11
-63.28653347947323
 21
148.6378221735125
 31
0.0
 11
-65.15255888325765
 21
147.4057713659437
 31
0.0
 11
-65.2865334794732
 21
145.1737205583748
 31
0.0
  0
SPLINE
  5
126
330
1F
100
AcDbEntity
  8
0
  6
Continuous
 62
     4
100
AcDbSpline
210
0.0
220
0.0
230
1.0
 70
     8
 71
     3
 72
    11
 73
     7
 74
     5
 42
0.0000000001
 43
0.0000000001
 44
0.0000000001
 12
-0.965925826289068
 22
-0.2588190451025222
 32
0.0
 13
-0.965925826289068
 23
-0.2588190451025223
 33
0.0
 40
0.0
 40
0.0
 40
0.0
 40
0.0
 40
2.236067977499768
 40
4.472135954999578
 40
6.708203932499357
 40
8.944271909999125
 40
8.944271909999125
 40
8.944271909999125
 40
8.944271909999125
 10
-61.28653347947323
 20
152.1019237886503
 30
0.0
 10
-62.00649208240823
 20
151.90901146241
 30
0.0
 10
-63.60545191327439
 20
151.0622567198174
 30
0.0
 10
-63.28653347947323
 20
148.6378221735125
 30
0.0
 10
-62.96761504567204
 20
146.2133876272077
 30
0.0
 10
-64.56657487653821
 20
145.3666328846151
 30
0.0
 10
-65.2865334794732
 20
145.1737205583748
 30
0.0
 11
-61.28653347947323
 21
152.1019237886503
 31
0.0
 11
-63.15255888325765
 21
150.8698729810814
 31
0.0
 11
-63.28653347947323
 21
148.6378221735125
 31
0.0
 11
-63.42050807568879
 21
146.4057713659437
 31
0.0
 11
-65.2865334794732
 21
145.1737205583748
 31
0.0
  0
SPLINE
  5
127
330
1F
100
AcDbEntity
  8
0
  6
Continuous
 62
     4
100
AcDbSpline
210
0.0
220
0.0
230
1.0
 70
     8
 71
     3
 72
     9
 73
     5
 74
     3
 42
0.0000000001
 43
0.0000000001
 44
0.0000000001
 12
-0.965925826289068
 22
-0.2588190451025222
 32
0.0
 13
0.2588190451025223
 23
-0.965925826289068
 33
0.0
 40
0.0
 40
0.0
 40
0.0
 40
0.0
 40
2.236067977499768
 40
4.472135954999548
 40
4.472135954999548
 40
4.472135954999548
 40
4.472135954999548
 10
-163.2865334794732
 20
148.6378221735125
 30
0.0
 10
-164.0064920824082
 20
148.4449098472723
 30
0.0
 10
-165.5621488224544
 20
147.6422482275963
 30
0.0
 10
-165.4794458057135
 20
145.8936791613098
 30
0.0
 10
-165.2865334794732
 20
145.1737205583748
 30
0.0
 11
-163.2865334794732
 21
148.6378221735125
 31
0.0
 11
-165.1525588832577
 21
147.4057713659437
 31
0.0
 11
-165.2865334794732
 21
145.1737205583748
 31
0.0
  0
SPLINE
  5
128
330
1F
100
AcDbEntity
  8
0
  6
Continuous
 62
     4
100
AcDbSpline
210
0.0
220
0.0
230
1.0
 70
     8
 71
     3
 72
    11
 73
     7
 74
     5
 42
0.0000000001
 43
0.0000000001
 44
0.0000000001
 12
-0.965925826289068
 22
-0.2588190451025222
 32
0.0
 13
-0.965925826289068
 23
-0.2588190451025223
 33
0.0
 40
0.0
 40
0.0
 40
0.0
 40
0.0
 40
2.236067977499768
 40
4.472135954999578
 40
6.708203932499357
 40
8.944271909999125
 40
8.944271909999125
 40
8.944271909999125
 40
8.944271909999125
 10
-161.2865334794732
 20
152.1019237886503
 30
0.0
 10
-162.0064920824082
 20
151.90901146241
 30
0.0
 10
-163.6054519132744
 20
151.0622567198174
 30
0.0
 10
-163.2865334794732
 20
148.6378221735125
 30
0.0
 10
-162.967615045672
 20
146.2133876272077
 30
0.0
 10
-164.5665748765382
 20
145.3666328846151
 30
0.0
 10
-165.2865334794732
 20
145.1737205583748
 30
0.0
 11
-161.2865334794732
 21
152.1019237886503
 31
0.0
 11
-163.1525588832577
 21
150.8698729810814
 31
0.0
 11
-163.2865334794732
 21
148.6378221735125
 31
0.0
 11
-163.4205080756888
 21
146.4057713659437
 31
0.0
 11
-165.2865334794732
 21
145.1737205583748
 31
0.0
  0
MTEXT
  5
129
330
1F
100
AcDbEntity
  8
0
 62
     7
100
AcDbMText
 10
19.44260497790785
 20
127.6151891769648
 30
0.0
 40
3.0
 41
0.0
 71
     7
 72
     1
  1
{\W0.833333;顕微鏡オートコリ切り替え}
 11
6.123233995736766E-17
 21
1.0
 31
0.0
 73
     1
 44
1.0
  0
MTEXT
  5
14C
330
1F
100
AcDbEntity
  8
0
 62
     7
100
AcDbMText
 10
29.75733361862034
 20
89.2439459615675
 30
0.0
 40
3.0
 41
0.0
 71
     7
 72
     1
  1
{\W0.833333;顕微鏡焦点位置}
 73
     1
 44
1.0
  0
MTEXT
  5
14D
330
1F
100
AcDbEntity
  8
0
 62
     7
100
AcDbMText
 10
-47.73420749859635
 20
184.2883516524954
 30
0.0
 40
3.0
 41
0.0
 71
     7
 72
     1
  1
{\W0.833333;ＨＡＷＫ２０３}
 73
     1
 44
1.0
  0
MTEXT
  5
14E
330
1F
100
AcDbEntity
  8
0
 62
     7
100
AcDbMText
 10
-146.6151686727081
 20
184.2883516524954
 30
0.0
 40
3.0
 41
0.0
 71
     7
 72
     1
  1
{\W0.833333;HAＷＫ204}
 73
     1
 44
1.0
  0
MTEXT
  5
14F
330
1F
100
AcDbEntity
  8
0
 62
     7
100
AcDbMText
 10
-47.4290193468244
 20
179.4053412241441
 30
0.0
 40
3.0
 41
0.0
 71
     7
 72
     1
  1
{\W0.833333;（ＣＭＯＳＴＹＰＥ）}
 73
     1
 44
1.0
  0
MTEXT
  5
150
330
1F
100
AcDbEntity
  8
0
 62
     7
100
AcDbMText
 10
-146.6151686727081
 20
179.4053412241441
 30
0.0
 40
3.0
 41
0.0
 71
     7
 72
     1
  1
{\W0.833333;（4ＱＤＴＹＰＥ）}
 73
     1
 44
1.0
  0
DIMENSION
  5
151
330
1F
100
AcDbEntity
  8
0
 62
     7
100
AcDbDimension
  2
*D2
 10
0.0
 20
160.3229982830746
 30
0.0
 11
-9.798999999999998
 21
160.3229982830746
 31
0.0
 70
   160
 71
     5
 42
19.59999999999999
  3
ISO-25
100
AcDbAlignedDimension
 13
-19.59999999999999
 23
141.2000000000037
 33
0.0
 14
0.0
 24
160.3219982830745
 34
0.0
 50
180.0
100
AcDbRotatedDimension
1001
ACAD
1000
DSTYLE
1002
{
1070
   278
1070
    46
1070
   147
1040
1.0
1070
    77
1070
     1
1070
    74
1070
     0
1070
    73
1070
     0
1070
    42
1040
2.54
1070
    44
1040
3.0
1070
    76
1070
     1
1070
    75
1070
     0
1070
   279
1070
     0
1070
   271
1070
     1
1070
   144
1040
1.0
1070
   173
1070
     1
1070
    41
1040
3.114
1070
   140
1040
4.0
1070
   344
1005
152
1070
   343
1005
152
1002
}
  0
DIMENSION
  5
164
330
1F
100
AcDbEntity
  8
0
 62
     7
100
AcDbDimension
  2
*D3
 10
-61.47994720400892
 20
109.2000000000037
 30
0.0
 11
-61.47994720400892
 21
107.4010000000018
 31
0.0
 70
   160
 71
     5
 42
3.600000000003668
  3
ISO-25
100
AcDbAlignedDimension
 13
-49.19999999999999
 23
105.6
 33
0.0
 14
-35.59999999999999
 24
109.2000000000037
 34
0.0
 50
270.0
100
AcDbRotatedDimension
1001
ACAD
1000
DSTYLE
1002
{
1070
   278
1070
    46
1070
   147
1040
1.0
1070
    77
1070
     1
1070
    74
1070
     0
1070
    73
1070
     0
1070
    42
1040
2.54
1070
    44
1040
2.0
1070
    76
1070
     0
1070
    75
1070
     0
1070
   279
1070
     0
1070
   271
1070
     1
1070
   144
1040
1.0
1070
   173
1070
     1
1070
    41
1040
3.114
1070
   140
1040
4.0
1070
   344
1005
152
1070
   343
1005
152
1002
}
  0
DIMENSION
  5
173
330
1F
100
AcDbEntity
  8
0
 62
     7
100
AcDbDimension
  2
*D4
 10
0.0
 20
160.3219982830745
 30
0.0
 11
2.501
 21
160.3219982830745
 31
0.0
 70
   160
 71
     5
 42
5.0
  3
ISO-25
100
AcDbAlignedDimension
 13
5.0
 23
123.6999999999996
 33
0.0
 14
0.0
 24
144.8
 34
0.0
100
AcDbRotatedDimension
1001
ACAD
1000
DSTYLE
1002
{
1070
   278
1070
    46
1070
   147
1040
1.0
1070
    77
1070
     1
1070
    74
1070
     0
1070
    73
1070
     0
1070
    42
1040
2.54
1070
    44
1040
2.0
1070
    76
1070
     0
1070
    75
1070
     0
1070
   279
1070
     0
1070
   271
1070
     0
1070
   144
1040
1.0
1070
   173
1070
     1
1070
    41
1040
3.114
1070
   140
1040
4.0
1070
   344
1005
152
1070
   343
1005
152
1002
}
  0
DIMENSION
  5
182
330
1F
100
AcDbEntity
  8
0
 62
     7
100
AcDbDimension
  2
*D5
 10
19.64493502109314
 20
66.60000000000001
 30
0.0
 11
19.64493502109314
 21
61.10099999999999
 31
0.0
 70
   160
 71
     5
 42
11.0
  3
ISO-25
100
AcDbAlignedDimension
 13
30.74315172912515
 23
55.59999999999999
 33
0.0
 14
37.34315172912517
 24
66.6
 34
0.0
 50
270.0
100
AcDbRotatedDimension
1001
ACAD
1000
DSTYLE
1002
{
1070
   278
1070
    46
1070
   147
1040
1.0
1070
    77
1070
     1
1070
    74
1070
     0
1070
    73
1070
     0
1070
    42
1040
2.54
1070
    44
1040
2.0
1070
    76
1070
     0
1070
    75
1070
     0
1070
   279
1070
     0
1070
   271
1070
     0
1070
   144
1040
1.0
1070
   173
1070
     1
1070
    41
1040
3.114
1070
   140
1040
4.0
1070
   344
1005
152
1070
   343
1005
152
1002
}
  0
DIMENSION
  5
18F
330
1F
100
AcDbEntity
  8
0
 62
     7
100
AcDbDimension
  2
*D6
 10
-49.19999999999999
 20
96.51295345074553
 30
0.0
 11
-24.59899999999999
 21
96.51295345074553
 31
0.0
 70
   160
 71
     5
 42
49.19999999999999
  3
ISO-25
100
AcDbAlignedDimension
 13
0.0
 23
105.6
 33
0.0
 14
-49.19999999999999
 24
105.6
 34
0.0
100
AcDbRotatedDimension
1001
ACAD
1000
DSTYLE
1002
{
1070
   278
1070
    46
1070
   147
1040
1.0
1070
    77
1070
     1
1070
    74
1070
     0
1070
    73
1070
     0
1070
    42
1040
2.54
1070
    44
1040
2.0
1070
    76
1070
     0
1070
    75
1070
     0
1070
   279
1070
     0
1070
   271
1070
     1
1070
   144
1040
1.0
1070
   173
1070
     1
1070
    41
1040
3.114
1070
   140
1040
4.0
1070
   344
1005
152
1070
   343
1005
152
1002
}
  0
DIMENSION
  5
19C
330
1F
100
AcDbEntity
  8
0
 62
     7
100
AcDbDimension
  2
*D7
 10
4.200000000000003
 20
96.51295345074553
 30
0.0
 11
38.536
 21
96.51295345074553
 31
0.0
 70
   160
  1
68.5
 71
     5
 42
68.67
  3
ISO-25
100
AcDbAlignedDimension
 13
72.87
 23
111.1999999999996
 33
0.0
 14
4.200000000000003
 24
105.6999999999996
 34
0.0
100
AcDbRotatedDimension
1001
ACAD
1000
DSTYLE
1002
{
1070
   278
1070
    46
1070
   147
1040
1.0
1070
    77
1070
     1
1070
    74
1070
     0
1070
    73
1070
     0
1070
    42
1040
2.54
1070
    44
1040
2.0
1070
    76
1070
     0
1070
    75
1070
     0
1070
   279
1070
     0
1070
   271
1070
     1
1070
   173
1070
     1
1070
    41
1040
3.114
1070
   140
1040
4.0
1070
   344
1005
152
1070
   343
1005
152
1002
}
  0
INSERT
  5
1AF
330
1F
100
AcDbEntity
  8
0
 62
     7
100
AcDbBlockReference
  2
DIM0001
 10
-20.2821311556611
 20
36.93592555424185
 30
0.0
  0
INSERT
  5
1B8
330
1F
100
AcDbEntity
  8
0
 62
     7
100
AcDbBlockReference
  2
SYM0001
 10
60.84315172912473
 20
64.6
 30
0.0
  0
INSERT
  5
1BF
330
1F
100
AcDbEntity
  8
0
 62
     7
100
AcDbBlockReference
  2
SYM0002
 10
13.11852283820269
 20
132.1999999999996
 30
0.0
  0
DIMENSION
  5
1C2
330
1F
100
AcDbEntity
  8
0
 62
     7
100
AcDbDimension
  2
*D11
 10
15.63133976473189
 20
3.599999999999994
 30
0.0
 11
15.63133976473189
 21
19.2240903260799
 31
0.0
 70
   160
 71
     5
 42
32.00000000000001
  3
ISO-25
100
AcDbAlignedDimension
 13
-19.59999999999999
 23
35.59999999999999
 33
0.0
 14
19.9668758506411
 24
3.599999999999994
 34
0.0
 50
90.00000000000001
100
AcDbRotatedDimension
1001
ACAD
1000
DSTYLE
1002
{
1070
   278
1070
    46
1070
   147
1040
1.0
1070
    77
1070
     1
1070
    74
1070
     0
1070
    73
1070
     0
1070
    42
1040
2.54
1070
    44
1040
2.0
1070
    76
1070
     0
1070
    75
1070
     0
1070
   279
1070
     0
1070
   271
1070
     0
1070
   144
1040
1.0
1070
   173
1070
     1
1070
    41
1040
3.114
1070
   140
1040
4.0
1070
   344
1005
152
1070
   343
1005
152
1002
}
  0
DIMENSION
  5
1CF
330
1F
100
AcDbEntity
  8
0
 62
     7
100
AcDbDimension
  2
*D12
 10
15.63033976473188
 20
0.000000000000006
 30
0.0
 11
15.63033976473189
 21
-11.41847619047618
 31
0.0
 70
   160
 71
     5
 42
3.599999999999996
  3
ISO-25
100
AcDbAlignedDimension
 13
-3.599999999999994
 23
3.599999999999994
 33
0.0
 14
0.0
 24
0.0
 34
0.0
 50
90.00000000000001
100
AcDbRotatedDimension
1001
ACAD
1000
DSTYLE
1002
{
1070
   278
1070
    46
1070
   147
1040
1.0
1070
    77
1070
     1
1070
    74
1070
     0
1070
    73
1070
     0
1070
    42
1040
2.54
1070
    44
1040
2.0
1070
    76
1070
     0
1070
    75
1070
     0
1070
   279
1070
     0
1070
   271
1070
     1
1070
   144
1040
1.0
1070
   173
1070
     1
1070
    41
1040
3.114
1070
   140
1040
4.0
1070
   344
1005
152
1070
   343
1005
152
1002
}
  0
DIMENSION
  5
1DF
330
1F
100
AcDbEntity
  8
0
 62
     7
100
AcDbDimension
  2
*D13
 10
-3.599999999999994
 20
-10.64982493240578
 30
0.0
 11
11.41847619047619
 21
-10.64982493240578
 31
0.0
 70
   160
 71
     5
 42
3.599999999999995
  3
ISO-25
100
AcDbAlignedDimension
 13
0.0
 23
0.0
 33
0.0
 14
-3.599999999999994
 24
-13.06001164679978
 34
0.0
100
AcDbRotatedDimension
1001
ACAD
1000
DSTYLE
1002
{
1070
   278
1070
    46
1070
   147
1040
1.0
1070
    77
1070
     1
1070
    74
1070
     0
1070
    73
1070
     0
1070
    42
1040
2.54
1070
    44
1040
2.0
1070
    76
1070
     0
1070
    75
1070
     0
1070
   279
1070
     0
1070
   271
1070
     1
1070
   144
1040
1.0
1070
   173
1070
     1
1070
    41
1040
3.114
1070
   140
1040
4.0
1070
   344
1005
152
1070
   343
1005
152
1002
}
  0
DIMENSION
  5
1EF
330
1F
100
AcDbEntity
  8
0
 62
     7
100
AcDbDimension
  2
*D14
 10
-35.59999999999999
 20
-10.64982493240578
 30
0.0
 11
-19.38217381779433
 21
-10.64982493240578
 31
0.0
 70
   160
 71
     5
 42
32.0
  3
ISO-25
100
AcDbAlignedDimension
 13
-3.599999999999994
 23
3.599999999999994
 33
0.0
 14
-35.59999999999999
 24
3.599999999999994
 34
0.0
100
AcDbRotatedDimension
1001
ACAD
1000
DSTYLE
1002
{
1070
   278
1070
    46
1070
   147
1040
1.0
1070
    77
1070
     1
1070
    74
1070
     0
1070
    73
1070
     0
1070
    42
1040
2.54
1070
    44
1040
2.0
1070
    76
1070
     0
1070
    75
1070
     0
1070
   279
1070
     0
1070
   271
1070
     0
1070
   144
1040
1.0
1070
   173
1070
     1
1070
    41
1040
3.114
1070
   140
1040
4.0
1070
   344
1005
152
1070
   343
1005
152
1002
}
  0
DIMENSION
  5
1FC
330
1F
100
AcDbEntity
  8
0
 62
     7
100
AcDbDimension
  2
*D15
 10
-12.98196314745099
 20
109.2000000000037
 30
0.0
 11
-12.98196314745099
 21
110.7010000000016
 31
0.0
 70
   160
 71
     5
 42
2.999999999995885
  3
ISO-25
100
AcDbAlignedDimension
 13
0.0
 23
112.1999999999996
 33
0.0
 14
-35.59999999999999
 24
109.2000000000037
 34
0.0
 50
90.00000000000001
100
AcDbRotatedDimension
1001
ACAD
1000
DSTYLE
1002
{
1070
   278
1070
    46
1070
   147
1040
1.0
1070
    77
1070
     1
1070
    74
1070
     0
1070
    73
1070
     0
1070
    42
1040
2.54
1070
    44
1040
2.0
1070
    76
1070
     0
1070
    75
1070
     0
1070
   279
1070
     0
1070
   271
1070
     0
1070
   144
1040
1.0
1070
   173
1070
     1
1070
    41
1040
3.114
1070
   140
1040
4.0
1070
   344
1005
152
1070
   343
1005
152
1002
}
  0
DIMENSION
  5
20B
330
1F
100
AcDbEntity
  8
0
 62
     7
100
AcDbDimension
  2
*D16
 10
-12.98196314745098
 20
112.1999999999996
 30
0.0
 11
-12.98196314745099
 21
126.7010000000016
 31
0.0
 70
   160
 71
     5
 42
29.0000000000041
  3
ISO-25
100
AcDbAlignedDimension
 13
-19.59999999999999
 23
141.2000000000037
 33
0.0
 14
-12.98296314745099
 24
112.1999999999996
 34
0.0
 50
90.00000000000001
100
AcDbRotatedDimension
1001
ACAD
1000
DSTYLE
1002
{
1070
   278
1070
    46
1070
   147
1040
1.0
1070
    77
1070
     1
1070
    74
1070
     0
1070
    73
1070
     0
1070
    42
1040
2.54
1070
    44
1040
3.0
1070
    76
1070
     1
1070
    75
1070
     0
1070
   279
1070
     0
1070
   271
1070
     0
1070
   144
1040
1.0
1070
   173
1070
     1
1070
    41
1040
3.114
1070
   140
1040
4.0
1070
   344
1005
152
1070
   343
1005
152
1002
}
  0
DIMENSION
  5
217
330
1F
100
AcDbEntity
  8
0
 62
     7
100
AcDbDimension
  2
*D17
 10
-19.59999999999999
 20
160.3229982830746
 30
0.0
 11
-27.59899999999999
 21
160.3229982830746
 31
0.0
 70
   160
 71
     5
 42
15.99999999999999
  3
ISO-25
100
AcDbAlignedDimension
 13
-35.59999999999999
 23
109.2000000000037
 33
0.0
 14
-19.59999999999999
 24
160.3219982830745
 34
0.0
 50
180.0
100
AcDbRotatedDimension
1001
ACAD
1000
DSTYLE
1002
{
1070
   278
1070
    46
1070
   147
1040
1.0
1070
    77
1070
     1
1070
    74
1070
     0
1070
    73
1070
     0
1070
    42
1040
2.54
1070
    44
1040
3.0
1070
    76
1070
     1
1070
    75
1070
     0
1070
   279
1070
     0
1070
   271
1070
     0
1070
   144
1040
1.0
1070
   173
1070
     1
1070
    41
1040
3.114
1070
   140
1040
4.0
1070
   344
1005
152
1070
   343
1005
152
1002
}
  0
INSERT
  5
229
330
1F
100
AcDbEntity
  8
0
 62
     7
100
AcDbBlockReference
  2
DIM0002
 10
-36.3785543491303
 20
107.3577586679708
 30
0.0
  0
DIMENSION
  5
22C
330
1F
100
AcDbEntity
  8
0
 62
     7
100
AcDbDimension
  2
*D19
 10
-61.47994720400892
 20
78.60000000000001
 30
0.0
 11
-61.47994720400892
 21
67.101
 31
0.0
 70
   160
 71
     5
 42
23.0
  3
ISO-25
100
AcDbAlignedDimension
 13
-49.19999999999999
 23
55.59999999999999
 33
0.0
 14
-49.19999999999999
 24
78.6
 34
0.0
 50
270.0
100
AcDbRotatedDimension
1001
ACAD
1000
DSTYLE
1002
{
1070
   278
1070
    46
1070
   147
1040
1.0
1070
    77
1070
     1
1070
    74
1070
     0
1070
    73
1070
     0
1070
    42
1040
2.54
1070
    44
1040
2.0
1070
    76
1070
     0
1070
    75
1070
     0
1070
   279
1070
     0
1070
   271
1070
     0
1070
   144
1040
1.0
1070
   173
1070
     1
1070
    41
1040
3.114
1070
   140
1040
4.0
1070
   344
1005
152
1070
   343
1005
152
1002
}
  0
INSERT
  5
23D
330
1F
100
AcDbEntity
  8
0
 62
     7
100
AcDbBlockReference
  2
SYM0003
 10
13.11852283820269
 20
123.6999999999996
 30
0.0
  0
DIMENSION
  5
240
330
1F
100
AcDbEntity
  8
0
 62
     7
100
AcDbDimension
  2
*D21
 10
-72.9945870557102
 20
-0.000000000000007
 30
0.0
 11
-72.99458705571021
 21
19.601
 31
0.0
 70
   160
 71
     5
 42
39.19999999999999
  3
ISO-25
100
AcDbAlignedDimension
 13
-49.19999999999999
 23
39.19999999999999
 33
0.0
 14
-41.94641016151371
 24
0.0
 34
0.0
 50
90.00000000000001
100
AcDbRotatedDimension
1001
ACAD
1000
DSTYLE
1002
{
1070
   278
1070
    46
1070
   147
1040
1.0
1070
    77
1070
     1
1070
    74
1070
     0
1070
    73
1070
     0
1070
    42
1040
2.54
1070
    44
1040
2.0
1070
    76
1070
     0
1070
    75
1070
     0
1070
   279
1070
     0
1070
   271
1070
     1
1070
   144
1040
1.0
1070
   173
1070
     1
1070
    41
1040
3.114
1070
   140
1040
4.0
1070
   344
1005
152
1070
   343
1005
152
1002
}
  0
DIMENSION
  5
24D
330
1F
100
AcDbEntity
  8
0
 62
     7
100
AcDbDimension
  2
*D22
 10
-100.0
 20
160.3219982830745
 30
0.0
 11
-97.34899999999999
 21
160.3219982830745
 31
0.0
 70
   160
 71
     5
 42
5.300000000000011
  3
ISO-25
100
AcDbAlignedDimension
 13
-94.69999999999999
 23
117.1522172922489
 33
0.0
 14
-100.0
 24
144.3
 34
0.0
100
AcDbRotatedDimension
1001
ACAD
1000
DSTYLE
1002
{
1070
   278
1070
    46
1070
   147
1040
1.0
1070
    77
1070
     1
1070
    74
1070
     0
1070
    73
1070
     0
1070
    42
1040
2.54
1070
    44
1040
2.0
1070
    76
1070
     0
1070
    75
1070
     0
1070
   279
1070
     0
1070
   271
1070
     1
1070
   144
1040
1.0
1070
   173
1070
     1
1070
    41
1040
3.114
1070
   140
1040
4.0
1070
   344
1005
152
1070
   343
1005
152
1002
}
  0
INSERT
  5
262
330
1F
100
AcDbEntity
  8
0
 62
     7
100
AcDbBlockReference
  2
SYM0004
 10
-95.45393547856439
 20
105.5238677364726
 30
0.0
  0
ENDSEC
  0
SECTION
  2
OBJECTS
  0
DICTIONARY
  5
C
330
0
100
AcDbDictionary
281
     1
  3
ACAD_GROUP
350
D
  3
ACAD_LAYOUT
350
1A
  3
ACAD_MLEADERSTYLE
350
267
  3
ACAD_MLINESTYLE
350
17
  3
ACAD_PLOTSETTINGS
350
19
  3
ACAD_PLOTSTYLENAME
350
E
  3
ACAD_SCALELIST
350
12A
  3
ACAD_VISUALSTYLE
350
2A
  3
AcDbVariableDictionary
350
265
  0
DICTIONARY
  5
D
102
{ACAD_REACTORS
330
C
102
}
330
C
100
AcDbDictionary
281
     1
  0
DICTIONARY
  5
1A
102
{ACAD_REACTORS
330
C
102
}
330
C
100
AcDbDictionary
281
     1
  3
Layout1
350
1E
  3
Layout2
350
26
  3
Model
350
22
  0
DICTIONARY
  5
267
102
{ACAD_REACTORS
330
C
102
}
330
C
100
AcDbDictionary
281
     1
  0
DICTIONARY
  5
17
102
{ACAD_REACTORS
330
C
102
}
330
C
100
AcDbDictionary
281
     1
  3
Standard
350
18
  0
DICTIONARY
  5
19
102
{ACAD_REACTORS
330
C
102
}
330
C
100
AcDbDictionary
281
     1
  0
ACDBDICTIONARYWDFLT
  5
E
102
{ACAD_REACTORS
330
C
102
}
330
C
100
AcDbDictionary
281
     1
  3
Normal
350
F
100
AcDbDictionaryWithDefault
340
F
  0
DICTIONARY
  5
12A
102
{ACAD_REACTORS
330
C
102
}
330
C
100
AcDbDictionary
281
     1
  3
A0
350
12B
  3
A1
350
12C
  3
A2
350
12D
  3
A3
350
12E
  3
A4
350
12F
  3
A5
350
130
  3
A6
350
131
  3
A7
350
132
  3
A8
350
133
  3
A9
350
134
  3
B0
350
135
  3
B1
350
136
  3
B2
350
137
  3
B3
350
138
  3
B4
350
139
  3
B5
350
13A
  3
B6
350
13B
  3
B7
350
13C
  3
B8
350
13D
  3
B9
350
13E
  3
C0
350
13F
  3
C1
350
140
  3
C2
350
141
  3
C3
350
142
  3
C4
350
143
  3
C5
350
144
  3
C6
350
145
  3
C7
350
146
  3
C8
350
147
  3
C9
350
148
  3
D0
350
149
  3
D1
350
14A
  3
D2
350
14B
  0
DICTIONARY
  5
2A
102
{ACAD_REACTORS
330
C
102
}
330
C
100
AcDbDictionary
281
     1
  3
2dWireframe
350
2F
  3
3D Hidden
350
31
  3
3dWireframe
350
30
  3
Basic
350
32
  3
Brighten
350
36
  3
ColorChange
350
3A
  3
Conceptual
350
34
  3
Dim
350
35
  3
Facepattern
350
39
  3
Flat
350
2B
  3
FlatWithEdges
350
2C
  3
Gouraud
350
2D
  3
GouraudWithEdges
350
2E
  3
Linepattern
350
38
  3
Realistic
350
33
  3
Thicken
350
37
  0
DICTIONARY
  5
265
102
{ACAD_REACTORS
330
C
102
}
330
C
100
AcDbDictionary
281
     1
  3
CANNOSCALE
350
26A
  3
DIMASSOC
350
26B
  3
HIDETEXT
350
26C
  3
PSOLHEIGHT
350
269
  3
PSOLWIDTH
350
268
  0
LAYOUT
  5
1E
102
{ACAD_REACTORS
330
1A
102
}
330
1A
100
AcDbPlotSettings
  1

  2
none_device
  4

  6

 40
0.0
 41
0.0
 42
0.0
 43
0.0
 44
0.0
 45
0.0
 46
0.0
 47
0.0
 48
0.0
 49
0.0
140
0.0
141
0.0
142
1.0
143
1.0
 70
   688
 72
     0
 73
     0
 74
     5
  7

 75
    16
147
1.0
148
0.0
149
0.0
100
AcDbLayout
  1
Layout1
 70
     1
 71
     1
 10
-165.2865334794732
 20
-13.06001164679978
 11
73.87
 21
187.8883516524953
 12
0.0
 22
0.0
 32
0.0
 14
1.000000000000000E+20
 24
1.000000000000000E+20
 34
1.000000000000000E+20
 15
-1.000000000000000E+20
 25
-1.000000000000000E+20
 35
-1.000000000000000E+20
146
0.0
 13
0.0
 23
0.0
 33
0.0
 16
1.0
 26
0.0
 36
0.0
 17
0.0
 27
1.0
 37
0.0
 76
     0
330
1B
  0
LAYOUT
  5
26
102
{ACAD_REACTORS
330
1A
102
}
330
1A
100
AcDbPlotSettings
  1

  2
none_device
  4

  6

 40
0.0
 41
0.0
 42
0.0
 43
0.0
 44
0.0
 45
0.0
 46
0.0
 47
0.0
 48
0.0
 49
0.0
140
0.0
141
0.0
142
1.0
143
1.0
 70
   688
 72
     0
 73
     0
 74
     5
  7

 75
    16
147
1.0
148
0.0
149
0.0
100
AcDbLayout
  1
Layout2
 70
     1
 71
     2
 10
0.0
 20
0.0
 11
0.0
 21
0.0
 12
0.0
 22
0.0
 32
0.0
 14
0.0
 24
0.0
 34
0.0
 15
0.0
 25
0.0
 35
0.0
146
0.0
 13
0.0
 23
0.0
 33
0.0
 16
1.0
 26
0.0
 36
0.0
 17
0.0
 27
1.0
 37
0.0
 76
     0
330
23
  0
LAYOUT
  5
22
102
{ACAD_REACTORS
330
1A
102
}
330
1A
100
AcDbPlotSettings
  1

  2
none_device
  4

  6

 40
0.0
 41
0.0
 42
0.0
 43
0.0
 44
0.0
 45
0.0
 46
0.0
 47
0.0
 48
0.0
 49
0.0
140
0.0
141
0.0
142
1.0
143
1.0
 70
  1712
 72
     0
 73
     0
 74
     0
  7

 75
     0
147
1.0
148
0.0
149
0.0
100
AcDbLayout
  1
Model
 70
     1
 71
     0
 10
-165.2865334794732
 20
-13.06001164679978
 11
73.87
 21
187.8883516524953
 12
0.0
 22
0.0
 32
0.0
 14
-165.2865334794732
 24
-13.06001164679978
 34
0.0
 15
73.87
 25
187.8883516524953
 35
0.0
146
0.0
 13
0.0
 23
0.0
 33
0.0
 16
1.0
 26
0.0
 36
0.0
 17
0.0
 27
1.0
 37
0.0
 76
     0
330
1F
331
29
  0
MLINESTYLE
  5
18
102
{ACAD_REACTORS
330
17
102
}
330
17
100
AcDbMlineStyle
  2
Standard
 70
     0
  3

 62
   256
 51
90.0
 52
90.0
 71
     2
 49
0.5
 62
   256
  6
BYLAYER
 49
-0.5
 62
   256
  6
BYLAYER
  0
ACDBPLACEHOLDER
  5
F
102
{ACAD_REACTORS
330
E
102
}
330
E
  0
SCALE
  5
12B
102
{ACAD_REACTORS
330
12A
102
}
330
12A
100
AcDbScale
 70
     0
300
1:1
140
1.0
141
1.0
290
     1
  0
SCALE
  5
12C
102
{ACAD_REACTORS
330
12A
102
}
330
12A
100
AcDbScale
 70
     0
300
1:2
140
1.0
141
2.0
290
     0
  0
SCALE
  5
12D
102
{ACAD_REACTORS
330
12A
102
}
330
12A
100
AcDbScale
 70
     0
300
1:4
140
1.0
141
4.0
290
     0
  0
SCALE
  5
12E
102
{ACAD_REACTORS
330
12A
102
}
330
12A
100
AcDbScale
 70
     0
300
1:5
140
1.0
141
5.0
290
     0
  0
SCALE
  5
12F
102
{ACAD_REACTORS
330
12A
102
}
330
12A
100
AcDbScale
 70
     0
300
1:8
140
1.0
141
8.0
290
     0
  0
SCALE
  5
130
102
{ACAD_REACTORS
330
12A
102
}
330
12A
100
AcDbScale
 70
     0
300
1:10
140
1.0
141
10.0
290
     0
  0
SCALE
  5
131
102
{ACAD_REACTORS
330
12A
102
}
330
12A
100
AcDbScale
 70
     0
300
1:16
140
1.0
141
16.0
290
     0
  0
SCALE
  5
132
102
{ACAD_REACTORS
330
12A
102
}
330
12A
100
AcDbScale
 70
     0
300
1:20
140
1.0
141
20.0
290
     0
  0
SCALE
  5
133
102
{ACAD_REACTORS
330
12A
102
}
330
12A
100
AcDbScale
 70
     0
300
1:30
140
1.0
141
30.0
290
     0
  0
SCALE
  5
134
102
{ACAD_REACTORS
330
12A
102
}
330
12A
100
AcDbScale
 70
     0
300
1:40
140
1.0
141
40.0
290
     0
  0
SCALE
  5
135
102
{ACAD_REACTORS
330
12A
102
}
330
12A
100
AcDbScale
 70
     0
300
1:50
140
1.0
141
50.0
290
     0
  0
SCALE
  5
136
102
{ACAD_REACTORS
330
12A
102
}
330
12A
100
AcDbScale
 70
     0
300
1:100
140
1.0
141
100.0
290
     0
  0
SCALE
  5
137
102
{ACAD_REACTORS
330
12A
102
}
330
12A
100
AcDbScale
 70
     0
300
2:1
140
2.0
141
1.0
290
     0
  0
SCALE
  5
138
102
{ACAD_REACTORS
330
12A
102
}
330
12A
100
AcDbScale
 70
     0
300
4:1
140
4.0
141
1.0
290
     0
  0
SCALE
  5
139
102
{ACAD_REACTORS
330
12A
102
}
330
12A
100
AcDbScale
 70
     0
300
8:1
140
8.0
141
1.0
290
     0
  0
SCALE
  5
13A
102
{ACAD_REACTORS
330
12A
102
}
330
12A
100
AcDbScale
 70
     0
300
10:1
140
10.0
141
1.0
290
     0
  0
SCALE
  5
13B
102
{ACAD_REACTORS
330
12A
102
}
330
12A
100
AcDbScale
 70
     0
300
100:1
140
100.0
141
1.0
290
     0
  0
SCALE
  5
13C
102
{ACAD_REACTORS
330
12A
102
}
330
12A
100
AcDbScale
 70
     0
300
1/128" = 1'-0"
140
0.0078125
141
12.0
290
     0
  0
SCALE
  5
13D
102
{ACAD_REACTORS
330
12A
102
}
330
12A
100
AcDbScale
 70
     0
300
1/64" = 1'-0"
140
0.015625
141
12.0
290
     0
  0
SCALE
  5
13E
102
{ACAD_REACTORS
330
12A
102
}
330
12A
100
AcDbScale
 70
     0
300
1/32" = 1'-0"
140
0.03125
141
12.0
290
     0
  0
SCALE
  5
13F
102
{ACAD_REACTORS
330
12A
102
}
330
12A
100
AcDbScale
 70
     0
300
1/16" = 1'-0"
140
0.0625
141
12.0
290
     0
  0
SCALE
  5
140
102
{ACAD_REACTORS
330
12A
102
}
330
12A
100
AcDbScale
 70
     0
300
3/32" = 1'-0"
140
0.09375
141
12.0
290
     0
  0
SCALE
  5
141
102
{ACAD_REACTORS
330
12A
102
}
330
12A
100
AcDbScale
 70
     0
300
1/8" = 1'-0"
140
0.125
141
12.0
290
     0
  0
SCALE
  5
142
102
{ACAD_REACTORS
330
12A
102
}
330
12A
100
AcDbScale
 70
     0
300
3/16" = 1'-0"
140
0.1875
141
12.0
290
     0
  0
SCALE
  5
143
102
{ACAD_REACTORS
330
12A
102
}
330
12A
100
AcDbScale
 70
     0
300
1/4" = 1'-0"
140
0.25
141
12.0
290
     0
  0
SCALE
  5
144
102
{ACAD_REACTORS
330
12A
102
}
330
12A
100
AcDbScale
 70
     0
300
3/8" = 1'-0"
140
0.375
141
12.0
290
     0
  0
SCALE
  5
145
102
{ACAD_REACTORS
330
12A
102
}
330
12A
100
AcDbScale
 70
     0
300
1/2" = 1'-0"
140
0.5
141
12.0
290
     0
  0
SCALE
  5
146
102
{ACAD_REACTORS
330
12A
102
}
330
12A
100
AcDbScale
 70
     0
300
3/4" = 1'-0"
140
0.75
141
12.0
290
     0
  0
SCALE
  5
147
102
{ACAD_REACTORS
330
12A
102
}
330
12A
100
AcDbScale
 70
     0
300
1" = 1'-0"
140
1.0
141
12.0
290
     0
  0
SCALE
  5
148
102
{ACAD_REACTORS
330
12A
102
}
330
12A
100
AcDbScale
 70
     0
300
1-1/2" = 1'-0"
140
1.5
141
12.0
290
     0
  0
SCALE
  5
149
102
{ACAD_REACTORS
330
12A
102
}
330
12A
100
AcDbScale
 70
     0
300
3" = 1'-0"
140
3.0
141
12.0
290
     0
  0
SCALE
  5
14A
102
{ACAD_REACTORS
330
12A
102
}
330
12A
100
AcDbScale
 70
     0
300
6" = 1'-0"
140
6.0
141
12.0
290
     0
  0
SCALE
  5
14B
102
{ACAD_REACTORS
330
12A
102
}
330
12A
100
AcDbScale
 70
     0
300
1'-0" = 1'-0"
140
12.0
141
12.0
290
     0
  0
VISUALSTYLE
  5
2F
102
{ACAD_REACTORS
330
2A
102
}
102
{ACAD_XDICTIONARY
360
275
102
}
330
2A
100
AcDbVisualStyle
  2
2dWireframe
 70
     4
 71
     0
 72
     2
 73
     0
 90
        0
 40
-0.6
 41
-30.0
 62
     5
 63
     7
 74
     1
 91
        4
 64
     7
 65
   257
 75
     1
175
     1
 42
1.0
 92
        0
 66
   257
 43
1.0
 76
     1
 77
     6
 78
     2
 67
     7
 79
     5
170
     0
171
     0
290
     0
174
     0
 93
        1
 44
0.0
173
     0
291
     0
 45
0.0
1001
ACAD
1000
AcDbSavedByObjectVersion
1070
     0
  0
VISUALSTYLE
  5
31
102
{ACAD_REACTORS
330
2A
102
}
102
{ACAD_XDICTIONARY
360
279
102
}
330
2A
100
AcDbVisualStyle
  2
3D Hidden
 70
     6
 71
     1
 72
     2
 73
     2
 90
        0
 40
-0.6
 41
-30.0
 62
     5
 63
     7
 74
     2
 91
        2
 64
     7
 65
   257
 75
     2
175
     1
 42
40.0
 92
        0
 66
   257
 43
1.0
 76
     1
 77
     6
 78
     2
 67
     7
 79
     3
170
     0
171
     0
290
     0
174
     0
 93
        1
 44
0.0
173
     0
291
     0
 45
0.0
1001
ACAD
1000
AcDbSavedByObjectVersion
1070
     0
  0
VISUALSTYLE
  5
30
102
{ACAD_REACTORS
330
2A
102
}
102
{ACAD_XDICTIONARY
360
277
102
}
330
2A
100
AcDbVisualStyle
  2
3dWireframe
 70
     5
 71
     0
 72
     2
 73
     0
 90
        0
 40
-0.6
 41
-30.0
 62
     5
 63
     7
 74
     1
 91
        4
 64
     7
 65
   257
 75
     1
175
     1
 42
1.0
 92
        0
 66
   257
 43
1.0
 76
     1
 77
     6
 78
     2
 67
     7
 79
     5
170
     0
171
     0
290
     0
174
     0
 93
        1
 44
0.0
173
     0
291
     0
 45
0.0
1001
ACAD
1000
AcDbSavedByObjectVersion
1070
     0
  0
VISUALSTYLE
  5
32
102
{ACAD_REACTORS
330
2A
102
}
102
{ACAD_XDICTIONARY
360
27B
102
}
330
2A
100
AcDbVisualStyle
  2
Basic
 70
     7
 71
     1
 72
     0
 73
     1
 90
        0
 40
-0.6
 41
-30.0
 62
     5
 63
     7
 74
     0
 91
        4
 64
     7
 65
   257
 75
     1
175
     1
 42
1.0
 92
        8
 66
     7
 43
1.0
 76
     1
 77
     6
 78
     2
 67
     7
 79
     5
170
     0
171
     0
290
     0
174
     0
 93
        1
 44
0.0
173
     0
291
     1
 45
0.0
1001
ACAD
1000
AcDbSavedByObjectVersion
1070
     0
  0
VISUALSTYLE
  5
36
102
{ACAD_REACTORS
330
2A
102
}
102
{ACAD_XDICTIONARY
360
283
102
}
330
2A
100
AcDbVisualStyle
  2
Brighten
 70
    12
 71
     2
 72
     2
 73
     0
 90
        0
 40
-0.6
 41
-30.0
 62
     5
 63
     7
 74
     1
 91
        4
 64
     7
 65
   257
 75
     1
175
     1
 42
1.0
 92
        8
 66
     7
 43
1.0
 76
     1
 77
     6
 78
     2
 67
     7
 79
     5
170
     0
171
     0
290
     0
174
     0
 93
        1
 44
50.0
173
     0
291
     1
 45
0.0
1001
ACAD
1000
AcDbSavedByObjectVersion
1070
     0
  0
VISUALSTYLE
  5
3A
102
{ACAD_REACTORS
330
2A
102
}
102
{ACAD_XDICTIONARY
360
28B
102
}
330
2A
100
AcDbVisualStyle
  2
ColorChange
 70
    16
 71
     2
 72
     2
 73
     3
 90
        0
 40
-0.6
 41
-30.0
 62
     5
 63
     8
 74
     1
 91
        4
 64
     7
 65
   257
 75
     1
175
     1
 42
1.0
 92
        8
 66
     8
 43
1.0
 76
     1
 77
     6
 78
     2
 67
     7
 79
     5
170
     0
171
     0
290
     0
174
     0
 93
        1
 44
0.0
173
     0
291
     1
 45
0.0
1001
ACAD
1000
AcDbSavedByObjectVersion
1070
     0
  0
VISUALSTYLE
  5
34
102
{ACAD_REACTORS
330
2A
102
}
102
{ACAD_XDICTIONARY
360
27F
102
}
330
2A
100
AcDbVisualStyle
  2
Conceptual
 70
     9
 71
     3
 72
     2
 73
     0
 90
        0
 40
-0.6
 41
-30.0
 62
     5
 63
     7
 74
     2
 91
        2
 64
     7
 65
   257
 75
     1
175
     1
 42
40.0
 92
        8
 66
     7
 43
1.0
 76
     1
 77
     6
 78
     2
 67
     7
 79
     3
170
     0
171
     0
290
     0
174
     0
 93
        1
 44
0.0
173
     0
291
     0
 45
0.0
1001
ACAD
1000
AcDbSavedByObjectVersion
1070
     0
  0
VISUALSTYLE
  5
35
102
{ACAD_REACTORS
330
2A
102
}
102
{ACAD_XDICTIONARY
360
281
102
}
330
2A
100
AcDbVisualStyle
  2
Dim
 70
    11
 71
     2
 72
     2
 73
     0
 90
        0
 40
-0.6
 41
-30.0
 62
     5
 63
     7
 74
     1
 91
        4
 64
     7
 65
   257
 75
     1
175
     1
 42
1.0
 92
        8
 66
     7
 43
1.0
 76
     1
 77
     6
 78
     2
 67
     7
 79
     5
170
     0
171
     0
290
     0
174
     0
 93
        1
 44
-50.0
173
     0
291
     1
 45
0.0
1001
ACAD
1000
AcDbSavedByObjectVersion
1070
     0
  0
VISUALSTYLE
  5
39
102
{ACAD_REACTORS
330
2A
102
}
102
{ACAD_XDICTIONARY
360
289
102
}
330
2A
100
AcDbVisualStyle
  2
Facepattern
 70
    15
 71
     2
 72
     2
 73
     0
 90
        0
 40
-0.6
 41
-30.0
 62
     5
 63
     7
 74
     1
 91
        4
 64
     7
 65
   257
 75
     1
175
     1
 42
1.0
 92
        8
 66
     7
 43
1.0
 76
     1
 77
     6
 78
     2
 67
     7
 79
     5
170
     0
171
     0
290
     0
174
     0
 93
        1
 44
0.0
173
     0
291
     1
 45
0.0
1001
ACAD
1000
AcDbSavedByObjectVersion
1070
     0
  0
VISUALSTYLE
  5
2B
102
{ACAD_REACTORS
330
2A
102
}
102
{ACAD_XDICTIONARY
360
26D
102
}
330
2A
100
AcDbVisualStyle
  2
Flat
 70
     0
 71
     2
 72
     1
 73
     1
 90
        2
 40
-0.6
 41
30.0
 62
     5
 63
     7
 74
     0
 91
        4
 64
     7
 65
   257
 75
     1
175
     1
 42
1.0
 92
        8
 66
     7
 43
1.0
 76
     1
 77
     6
 78
     2
 67
     7
 79
     5
170
     0
171
     0
290
     0
174
     0
 93
       13
 44
0.0
173
     0
291
     1
 45
0.0
1001
ACAD
1000
AcDbSavedByObjectVersion
1070
     0
  0
VISUALSTYLE
  5
2C
102
{ACAD_REACTORS
330
2A
102
}
102
{ACAD_XDICTIONARY
360
26F
102
}
330
2A
100
AcDbVisualStyle
  2
FlatWithEdges
 70
     1
 71
     2
 72
     1
 73
     1
 90
        2
 40
-0.6
 41
30.0
 62
     5
 63
     7
 74
     1
 91
        4
 64
     7
 65
   257
 75
     1
175
     1
 42
1.0
 92
        0
 66
   257
 43
1.0
 76
     1
 77
     6
 78
     2
 67
     7
 79
     5
170
     0
171
     0
290
     0
174
     0
 93
       13
 44
0.0
173
     0
291
     1
 45
0.0
1001
ACAD
1000
AcDbSavedByObjectVersion
1070
     0
  0
VISUALSTYLE
  5
2D
102
{ACAD_REACTORS
330
2A
102
}
102
{ACAD_XDICTIONARY
360
271
102
}
330
2A
100
AcDbVisualStyle
  2
Gouraud
 70
     2
 71
     2
 72
     2
 73
     1
 90
        2
 40
-0.6
 41
30.0
 62
     5
 63
     7
 74
     0
 91
        4
 64
     7
 65
   257
 75
     1
175
     1
 42
1.0
 92
        0
 66
     7
 43
1.0
 76
     1
 77
     6
 78
     2
 67
     7
 79
     5
170
     0
171
     0
290
     0
174
     0
 93
       13
 44
0.0
173
     0
291
     1
 45
0.0
1001
ACAD
1000
AcDbSavedByObjectVersion
1070
     0
  0
VISUALSTYLE
  5
2E
102
{ACAD_REACTORS
330
2A
102
}
102
{ACAD_XDICTIONARY
360
273
102
}
330
2A
100
AcDbVisualStyle
  2
GouraudWithEdges
 70
     3
 71
     2
 72
     2
 73
     1
 90
        2
 40
-0.6
 41
30.0
 62
     5
 63
     7
 74
     1
 91
        4
 64
     7
 65
   257
 75
     1
175
     1
 42
1.0
 92
        0
 66
   257
 43
1.0
 76
     1
 77
     6
 78
     2
 67
     7
 79
     5
170
     0
171
     0
290
     0
174
     0
 93
       13
 44
0.0
173
     0
291
     1
 45
0.0
1001
ACAD
1000
AcDbSavedByObjectVersion
1070
     0
  0
VISUALSTYLE
  5
38
102
{ACAD_REACTORS
330
2A
102
}
102
{ACAD_XDICTIONARY
360
287
102
}
330
2A
100
AcDbVisualStyle
  2
Linepattern
 70
    14
 71
     2
 72
     2
 73
     0
 90
        0
 40
-0.6
 41
-30.0
 62
     5
 63
     7
 74
     1
 91
        4
 64
     7
 65
   257
 75
     7
175
     7
 42
1.0
 92
        8
 66
     7
 43
1.0
 76
     1
 77
     6
 78
     2
 67
     7
 79
     5
170
     0
171
     0
290
     0
174
     0
 93
        1
 44
0.0
173
     0
291
     1
 45
0.0
1001
ACAD
1000
AcDbSavedByObjectVersion
1070
     0
  0
VISUALSTYLE
  5
33
102
{ACAD_REACTORS
330
2A
102
}
102
{ACAD_XDICTIONARY
360
27D
102
}
330
2A
100
AcDbVisualStyle
  2
Realistic
 70
     8
 71
     2
 72
     2
 73
     0
 90
        0
 40
-0.6
 41
-30.0
 62
     5
 63
     7
 74
     1
 91
        0
 64
     7
 65
   257
 75
     1
175
     1
 42
1.0
 92
        8
 66
     8
 43
1.0
 76
     1
 77
     6
 78
     2
 67
     7
 79
     5
170
     0
171
     0
290
     0
174
     0
 93
       13
 44
0.0
173
     0
291
     0
 45
0.0
1001
ACAD
1000
AcDbSavedByObjectVersion
1070
     0
  0
VISUALSTYLE
  5
37
102
{ACAD_REACTORS
330
2A
102
}
102
{ACAD_XDICTIONARY
360
285
102
}
330
2A
100
AcDbVisualStyle
  2
Thicken
 70
    13
 71
     2
 72
     2
 73
     0
 90
        0
 40
-0.6
 41
-30.0
 62
     5
 63
     7
 74
     1
 91
        4
 64
     7
 65
   257
 75
     1
175
     1
 42
1.0
 92
       12
 66
     7
 43
1.0
 76
     1
 77
     6
 78
     2
 67
     7
 79
     5
170
     0
171
     0
290
     0
174
     0
 93
        1
 44
0.0
173
     0
291
     1
 45
0.0
1001
ACAD
1000
AcDbSavedByObjectVersion
1070
     0
  0
DICTIONARYVAR
  5
26A
102
{ACAD_REACTORS
330
265
102
}
330
265
100
DictionaryVariables
280
     0
  1
1:1
  0
DICTIONARYVAR
  5
26B
102
{ACAD_REACTORS
330
265
102
}
330
265
100
DictionaryVariables
280
     0
  1
2
  0
DICTIONARYVAR
  5
26C
102
{ACAD_REACTORS
330
265
102
}
330
265
100
DictionaryVariables
280
     0
  1
1
  0
DICTIONARYVAR
  5
269
102
{ACAD_REACTORS
330
265
102
}
330
265
100
DictionaryVariables
280
     0
  1
80.000000
  0
DICTIONARYVAR
  5
268
102
{ACAD_REACTORS
330
265
102
}
330
265
100
DictionaryVariables
280
     0
  1
5.000000
  0
DICTIONARY
  5
275
330
2F
100
AcDbDictionary
280
     1
281
     1
  3
ACAD_XREC_ROUNDTRIP
360
276
  0
DICTIONARY
  5
279
330
31
100
AcDbDictionary
280
     1
281
     1
  3
ACAD_XREC_ROUNDTRIP
360
27A
  0
DICTIONARY
  5
277
330
30
100
AcDbDictionary
280
     1
281
     1
  3
ACAD_XREC_ROUNDTRIP
360
278
  0
DICTIONARY
  5
27B
330
32
100
AcDbDictionary
280
     1
281
     1
  3
ACAD_XREC_ROUNDTRIP
360
27C
  0
DICTIONARY
  5
283
330
36
100
AcDbDictionary
280
     1
281
     1
  3
ACAD_XREC_ROUNDTRIP
360
284
  0
DICTIONARY
  5
28B
330
3A
100
AcDbDictionary
280
     1
281
     1
  3
ACAD_XREC_ROUNDTRIP
360
28C
  0
DICTIONARY
  5
27F
330
34
100
AcDbDictionary
280
     1
281
     1
  3
ACAD_XREC_ROUNDTRIP
360
280
  0
DICTIONARY
  5
281
330
35
100
AcDbDictionary
280
     1
281
     1
  3
ACAD_XREC_ROUNDTRIP
360
282
  0
DICTIONARY
  5
289
330
39
100
AcDbDictionary
280
     1
281
     1
  3
ACAD_XREC_ROUNDTRIP
360
28A
  0
DICTIONARY
  5
26D
330
2B
100
AcDbDictionary
280
     1
281
     1
  3
ACAD_XREC_ROUNDTRIP
360
26E
  0
DICTIONARY
  5
26F
330
2C
100
AcDbDictionary
280
     1
281
     1
  3
ACAD_XREC_ROUNDTRIP
360
270
  0
DICTIONARY
  5
271
330
2D
100
AcDbDictionary
280
     1
281
     1
  3
ACAD_XREC_ROUNDTRIP
360
272
  0
DICTIONARY
  5
273
330
2E
100
AcDbDictionary
280
     1
281
     1
  3
ACAD_XREC_ROUNDTRIP
360
274
  0
DICTIONARY
  5
287
330
38
100
AcDbDictionary
280
     1
281
     1
  3
ACAD_XREC_ROUNDTRIP
360
288
  0
DICTIONARY
  5
27D
330
33
100
AcDbDictionary
280
     1
281
     1
  3
ACAD_XREC_ROUNDTRIP
360
27E
  0
DICTIONARY
  5
285
330
37
100
AcDbDictionary
280
     1
281
     1
  3
ACAD_XREC_ROUNDTRIP
360
286
  0
XRECORD
  5
276
102
{ACAD_REACTORS
330
275
102
}
330
275
100
AcDbXrecord
280
     1
102
RTVSPropertyOp0
 70
     1
102
RTVSPropertyOp1
 70
     1
102
RTVSPropertyOp2
 70
     1
102
RTVSPropertyOp3
 70
     1
102
RTVSPropertyOp4
 70
     1
102
RTVSPropertyOp5
 70
     1
102
RTVSPropertyOp6
 70
     1
102
RTVSPropertyOp7
 70
     1
102
RTVSPropertyOp8
 70
     1
102
RTVSPropertyOp9
 70
     1
102
RTVSPropertyOp10
 70
     1
102
RTVSPropertyOp11
 70
     1
102
RTVSPropertyOp12
 70
     1
102
RTVSPropertyOp13
 70
     1
102
RTVSPropertyOp14
 70
     1
102
RTVSPropertyOp15
 70
     1
102
RTVSPropertyOp16
 70
     1
102
RTVSPropertyOp17
 70
     1
102
RTVSPropertyOp18
 70
     1
102
RTVSPropertyOp19
 70
     1
102
RTVSPropertyOp20
 70
     1
102
RTVSPropertyOp21
 70
     1
102
RTVSPropertyOp22
 70
     1
102
RTVSPropertyOp23
 70
     1
102
RTVSPropertyOp24
 70
     1
102
RTVSPropertyOp25
 70
     1
102
RTVSPropertyOp26
 70
     1
102
RTVSPropertyOp27
 70
     1
  0
XRECORD
  5
27A
102
{ACAD_REACTORS
330
279
102
}
330
279
100
AcDbXrecord
280
     1
102
RTVSPropertyOp0
 70
     1
102
RTVSPropertyOp1
 70
     1
102
RTVSPropertyOp2
 70
     1
102
RTVSPropertyOp3
 70
     1
102
RTVSPropertyOp4
 70
     1
102
RTVSPropertyOp5
 70
     1
102
RTVSPropertyOp6
 70
     1
102
RTVSPropertyOp7
 70
     1
102
RTVSPropertyOp8
 70
     1
102
RTVSPropertyOp9
 70
     1
102
RTVSPropertyOp10
 70
     1
102
RTVSPropertyOp11
 70
     1
102
RTVSPropertyOp12
 70
     1
102
RTVSPropertyOp13
 70
     1
102
RTVSPropertyOp14
 70
     1
102
RTVSPropertyOp15
 70
     1
102
RTVSPropertyOp16
 70
     1
102
RTVSPropertyOp17
 70
     1
102
RTVSPropertyOp18
 70
     1
102
RTVSPropertyOp19
 70
     1
102
RTVSPropertyOp20
 70
     1
102
RTVSPropertyOp21
 70
     1
102
RTVSPropertyOp22
 70
     1
102
RTVSPropertyOp23
 70
     1
102
RTVSPropertyOp24
 70
     1
102
RTVSPropertyOp25
 70
     1
102
RTVSPropertyOp26
 70
     1
102
RTVSPropertyOp27
 70
     1
  0
XRECORD
  5
278
102
{ACAD_REACTORS
330
277
102
}
330
277
100
AcDbXrecord
280
     1
102
RTVSPropertyOp0
 70
     1
102
RTVSPropertyOp1
 70
     1
102
RTVSPropertyOp2
 70
     1
102
RTVSPropertyOp3
 70
     1
102
RTVSPropertyOp4
 70
     1
102
RTVSPropertyOp5
 70
     1
102
RTVSPropertyOp6
 70
     1
102
RTVSPropertyOp7
 70
     1
102
RTVSPropertyOp8
 70
     1
102
RTVSPropertyOp9
 70
     1
102
RTVSPropertyOp10
 70
     1
102
RTVSPropertyOp11
 70
     1
102
RTVSPropertyOp12
 70
     1
102
RTVSPropertyOp13
 70
     1
102
RTVSPropertyOp14
 70
     1
102
RTVSPropertyOp15
 70
     1
102
RTVSPropertyOp16
 70
     1
102
RTVSPropertyOp17
 70
     1
102
RTVSPropertyOp18
 70
     1
102
RTVSPropertyOp19
 70
     1
102
RTVSPropertyOp20
 70
     1
102
RTVSPropertyOp21
 70
     1
102
RTVSPropertyOp22
 70
     1
102
RTVSPropertyOp23
 70
     1
102
RTVSPropertyOp24
 70
     1
102
RTVSPropertyOp25
 70
     1
102
RTVSPropertyOp26
 70
     1
102
RTVSPropertyOp27
 70
     1
  0
XRECORD
  5
27C
102
{ACAD_REACTORS
330
27B
102
}
330
27B
100
AcDbXrecord
280
     1
102
RTVSPropertyOp0
 70
     1
102
RTVSPropertyOp1
 70
     1
102
RTVSPropertyOp2
 70
     1
102
RTVSPropertyOp3
 70
     1
102
RTVSPropertyOp4
 70
     1
102
RTVSPropertyOp5
 70
     1
102
RTVSPropertyOp6
 70
     1
102
RTVSPropertyOp7
 70
     1
102
RTVSPropertyOp8
 70
     1
102
RTVSPropertyOp9
 70
     1
102
RTVSPropertyOp10
 70
     1
102
RTVSPropertyOp11
 70
     1
102
RTVSPropertyOp12
 70
     1
102
RTVSPropertyOp13
 70
     1
102
RTVSPropertyOp14
 70
     1
102
RTVSPropertyOp15
 70
     1
102
RTVSPropertyOp16
 70
     1
102
RTVSPropertyOp17
 70
     1
102
RTVSPropertyOp18
 70
     1
102
RTVSPropertyOp19
 70
     1
102
RTVSPropertyOp20
 70
     1
102
RTVSPropertyOp21
 70
     1
102
RTVSPropertyOp22
 70
     1
102
RTVSPropertyOp23
 70
     1
102
RTVSPropertyOp24
 70
     1
102
RTVSPropertyOp25
 70
     1
102
RTVSPropertyOp26
 70
     1
102
RTVSPropertyOp27
 70
     1
  0
XRECORD
  5
284
102
{ACAD_REACTORS
330
283
102
}
330
283
100
AcDbXrecord
280
     1
102
RTVSPropertyOp0
 70
     1
102
RTVSPropertyOp1
 70
     1
102
RTVSPropertyOp2
 70
     1
102
RTVSPropertyOp3
 70
     1
102
RTVSPropertyOp4
 70
     1
102
RTVSPropertyOp5
 70
     1
102
RTVSPropertyOp6
 70
     1
102
RTVSPropertyOp7
 70
     1
102
RTVSPropertyOp8
 70
     1
102
RTVSPropertyOp9
 70
     1
102
RTVSPropertyOp10
 70
     1
102
RTVSPropertyOp11
 70
     1
102
RTVSPropertyOp12
 70
     1
102
RTVSPropertyOp13
 70
     1
102
RTVSPropertyOp14
 70
     1
102
RTVSPropertyOp15
 70
     1
102
RTVSPropertyOp16
 70
     1
102
RTVSPropertyOp17
 70
     1
102
RTVSPropertyOp18
 70
     1
102
RTVSPropertyOp19
 70
     1
102
RTVSPropertyOp20
 70
     1
102
RTVSPropertyOp21
 70
     1
102
RTVSPropertyOp22
 70
     1
102
RTVSPropertyOp23
 70
     1
102
RTVSPropertyOp24
 70
     1
102
RTVSPropertyOp25
 70
     1
102
RTVSPropertyOp26
 70
     1
102
RTVSPropertyOp27
 70
     1
  0
XRECORD
  5
28C
102
{ACAD_REACTORS
330
28B
102
}
330
28B
100
AcDbXrecord
280
     1
102
RTVSPropertyOp0
 70
     1
102
RTVSPropertyOp1
 70
     1
102
RTVSPropertyOp2
 70
     1
102
RTVSPropertyOp3
 70
     1
102
RTVSPropertyOp4
 70
     1
102
RTVSPropertyOp5
 70
     1
102
RTVSPropertyOp6
 70
     1
102
RTVSPropertyOp7
 70
     1
102
RTVSPropertyOp8
 70
     1
102
RTVSPropertyOp9
 70
     1
102
RTVSPropertyOp10
 70
     1
102
RTVSPropertyOp11
 70
     1
102
RTVSPropertyOp12
 70
     1
102
RTVSPropertyOp13
 70
     1
102
RTVSPropertyOp14
 70
     1
102
RTVSPropertyOp15
 70
     1
102
RTVSPropertyOp16
 70
     1
102
RTVSPropertyOp17
 70
     1
102
RTVSPropertyOp18
 70
     1
102
RTVSPropertyOp19
 70
     1
102
RTVSPropertyOp20
 70
     1
102
RTVSPropertyOp21
 70
     1
102
RTVSPropertyOp22
 70
     1
102
RTVSPropertyOp23
 70
     1
102
RTVSPropertyOp24
 70
     1
102
RTVSPropertyOp25
 70
     1
102
RTVSPropertyOp26
 70
     1
102
RTVSPropertyOp27
 70
     1
  0
XRECORD
  5
280
102
{ACAD_REACTORS
330
27F
102
}
330
27F
100
AcDbXrecord
280
     1
102
RTVSPropertyOp0
 70
     1
102
RTVSPropertyOp1
 70
     1
102
RTVSPropertyOp2
 70
     1
102
RTVSPropertyOp3
 70
     1
102
RTVSPropertyOp4
 70
     1
102
RTVSPropertyOp5
 70
     1
102
RTVSPropertyOp6
 70
     1
102
RTVSPropertyOp7
 70
     1
102
RTVSPropertyOp8
 70
     1
102
RTVSPropertyOp9
 70
     1
102
RTVSPropertyOp10
 70
     1
102
RTVSPropertyOp11
 70
     1
102
RTVSPropertyOp12
 70
     1
102
RTVSPropertyOp13
 70
     1
102
RTVSPropertyOp14
 70
     1
102
RTVSPropertyOp15
 70
     1
102
RTVSPropertyOp16
 70
     1
102
RTVSPropertyOp17
 70
     1
102
RTVSPropertyOp18
 70
     1
102
RTVSPropertyOp19
 70
     1
102
RTVSPropertyOp20
 70
     1
102
RTVSPropertyOp21
 70
     1
102
RTVSPropertyOp22
 70
     1
102
RTVSPropertyOp23
 70
     1
102
RTVSPropertyOp24
 70
     1
102
RTVSPropertyOp25
 70
     1
102
RTVSPropertyOp26
 70
     1
102
RTVSPropertyOp27
 70
     1
  0
XRECORD
  5
282
102
{ACAD_REACTORS
330
281
102
}
330
281
100
AcDbXrecord
280
     1
102
RTVSPropertyOp0
 70
     1
102
RTVSPropertyOp1
 70
     1
102
RTVSPropertyOp2
 70
     1
102
RTVSPropertyOp3
 70
     1
102
RTVSPropertyOp4
 70
     1
102
RTVSPropertyOp5
 70
     1
102
RTVSPropertyOp6
 70
     1
102
RTVSPropertyOp7
 70
     1
102
RTVSPropertyOp8
 70
     1
102
RTVSPropertyOp9
 70
     1
102
RTVSPropertyOp10
 70
     1
102
RTVSPropertyOp11
 70
     1
102
RTVSPropertyOp12
 70
     1
102
RTVSPropertyOp13
 70
     1
102
RTVSPropertyOp14
 70
     1
102
RTVSPropertyOp15
 70
     1
102
RTVSPropertyOp16
 70
     1
102
RTVSPropertyOp17
 70
     1
102
RTVSPropertyOp18
 70
     1
102
RTVSPropertyOp19
 70
     1
102
RTVSPropertyOp20
 70
     1
102
RTVSPropertyOp21
 70
     1
102
RTVSPropertyOp22
 70
     1
102
RTVSPropertyOp23
 70
     1
102
RTVSPropertyOp24
 70
     1
102
RTVSPropertyOp25
 70
     1
102
RTVSPropertyOp26
 70
     1
102
RTVSPropertyOp27
 70
     1
  0
XRECORD
  5
28A
102
{ACAD_REACTORS
330
289
102
}
330
289
100
AcDbXrecord
280
     1
102
RTVSPropertyOp0
 70
     1
102
RTVSPropertyOp1
 70
     1
102
RTVSPropertyOp2
 70
     1
102
RTVSPropertyOp3
 70
     1
102
RTVSPropertyOp4
 70
     1
102
RTVSPropertyOp5
 70
     1
102
RTVSPropertyOp6
 70
     1
102
RTVSPropertyOp7
 70
     1
102
RTVSPropertyOp8
 70
     1
102
RTVSPropertyOp9
 70
     1
102
RTVSPropertyOp10
 70
     1
102
RTVSPropertyOp11
 70
     1
102
RTVSPropertyOp12
 70
     1
102
RTVSPropertyOp13
 70
     1
102
RTVSPropertyOp14
 70
     1
102
RTVSPropertyOp15
 70
     1
102
RTVSPropertyOp16
 70
     1
102
RTVSPropertyOp17
 70
     1
102
RTVSPropertyOp18
 70
     1
102
RTVSPropertyOp19
 70
     1
102
RTVSPropertyOp20
 70
     1
102
RTVSPropertyOp21
 70
     1
102
RTVSPropertyOp22
 70
     1
102
RTVSPropertyOp23
 70
     1
102
RTVSPropertyOp24
 70
     1
102
RTVSPropertyOp25
 70
     1
102
RTVSPropertyOp26
 70
     1
102
RTVSPropertyOp27
 70
     1
  0
XRECORD
  5
26E
102
{ACAD_REACTORS
330
26D
102
}
330
26D
100
AcDbXrecord
280
     1
102
RTVSPropertyOp0
 70
     1
102
RTVSPropertyOp1
 70
     1
102
RTVSPropertyOp2
 70
     1
102
RTVSPropertyOp3
 70
     1
102
RTVSPropertyOp4
 70
     1
102
RTVSPropertyOp5
 70
     1
102
RTVSPropertyOp6
 70
     1
102
RTVSPropertyOp7
 70
     1
102
RTVSPropertyOp8
 70
     1
102
RTVSPropertyOp9
 70
     1
102
RTVSPropertyOp10
 70
     1
102
RTVSPropertyOp11
 70
     1
102
RTVSPropertyOp12
 70
     1
102
RTVSPropertyOp13
 70
     1
102
RTVSPropertyOp14
 70
     1
102
RTVSPropertyOp15
 70
     1
102
RTVSPropertyOp16
 70
     1
102
RTVSPropertyOp17
 70
     1
102
RTVSPropertyOp18
 70
     1
102
RTVSPropertyOp19
 70
     1
102
RTVSPropertyOp20
 70
     1
102
RTVSPropertyOp21
 70
     1
102
RTVSPropertyOp22
 70
     1
102
RTVSPropertyOp23
 70
     1
102
RTVSPropertyOp24
 70
     1
102
RTVSPropertyOp25
 70
     1
102
RTVSPropertyOp26
 70
     1
102
RTVSPropertyOp27
 70
     1
  0
XRECORD
  5
270
102
{ACAD_REACTORS
330
26F
102
}
330
26F
100
AcDbXrecord
280
     1
102
RTVSPropertyOp0
 70
     1
102
RTVSPropertyOp1
 70
     1
102
RTVSPropertyOp2
 70
     1
102
RTVSPropertyOp3
 70
     1
102
RTVSPropertyOp4
 70
     1
102
RTVSPropertyOp5
 70
     1
102
RTVSPropertyOp6
 70
     1
102
RTVSPropertyOp7
 70
     1
102
RTVSPropertyOp8
 70
     1
102
RTVSPropertyOp9
 70
     1
102
RTVSPropertyOp10
 70
     1
102
RTVSPropertyOp11
 70
     1
102
RTVSPropertyOp12
 70
     1
102
RTVSPropertyOp13
 70
     1
102
RTVSPropertyOp14
 70
     1
102
RTVSPropertyOp15
 70
     1
102
RTVSPropertyOp16
 70
     1
102
RTVSPropertyOp17
 70
     1
102
RTVSPropertyOp18
 70
     1
102
RTVSPropertyOp19
 70
     1
102
RTVSPropertyOp20
 70
     1
102
RTVSPropertyOp21
 70
     1
102
RTVSPropertyOp22
 70
     1
102
RTVSPropertyOp23
 70
     1
102
RTVSPropertyOp24
 70
     1
102
RTVSPropertyOp25
 70
     1
102
RTVSPropertyOp26
 70
     1
102
RTVSPropertyOp27
 70
     1
  0
XRECORD
  5
272
102
{ACAD_REACTORS
330
271
102
}
330
271
100
AcDbXrecord
280
     1
102
RTVSPropertyOp0
 70
     1
102
RTVSPropertyOp1
 70
     1
102
RTVSPropertyOp2
 70
     1
102
RTVSPropertyOp3
 70
     1
102
RTVSPropertyOp4
 70
     1
102
RTVSPropertyOp5
 70
     1
102
RTVSPropertyOp6
 70
     1
102
RTVSPropertyOp7
 70
     1
102
RTVSPropertyOp8
 70
     1
102
RTVSPropertyOp9
 70
     1
102
RTVSPropertyOp10
 70
     1
102
RTVSPropertyOp11
 70
     1
102
RTVSPropertyOp12
 70
     1
102
RTVSPropertyOp13
 70
     1
102
RTVSPropertyOp14
 70
     1
102
RTVSPropertyOp15
 70
     1
102
RTVSPropertyOp16
 70
     1
102
RTVSPropertyOp17
 70
     1
102
RTVSPropertyOp18
 70
     1
102
RTVSPropertyOp19
 70
     1
102
RTVSPropertyOp20
 70
     1
102
RTVSPropertyOp21
 70
     1
102
RTVSPropertyOp22
 70
     1
102
RTVSPropertyOp23
 70
     1
102
RTVSPropertyOp24
 70
     1
102
RTVSPropertyOp25
 70
     1
102
RTVSPropertyOp26
 70
     1
102
RTVSPropertyOp27
 70
     1
  0
XRECORD
  5
274
102
{ACAD_REACTORS
330
273
102
}
330
273
100
AcDbXrecord
280
     1
102
RTVSPropertyOp0
 70
     1
102
RTVSPropertyOp1
 70
     1
102
RTVSPropertyOp2
 70
     1
102
RTVSPropertyOp3
 70
     1
102
RTVSPropertyOp4
 70
     1
102
RTVSPropertyOp5
 70
     1
102
RTVSPropertyOp6
 70
     1
102
RTVSPropertyOp7
 70
     1
102
RTVSPropertyOp8
 70
     1
102
RTVSPropertyOp9
 70
     1
102
RTVSPropertyOp10
 70
     1
102
RTVSPropertyOp11
 70
     1
102
RTVSPropertyOp12
 70
     1
102
RTVSPropertyOp13
 70
     1
102
RTVSPropertyOp14
 70
     1
102
RTVSPropertyOp15
 70
     1
102
RTVSPropertyOp16
 70
     1
102
RTVSPropertyOp17
 70
     1
102
RTVSPropertyOp18
 70
     1
102
RTVSPropertyOp19
 70
     1
102
RTVSPropertyOp20
 70
     1
102
RTVSPropertyOp21
 70
     1
102
RTVSPropertyOp22
 70
     1
102
RTVSPropertyOp23
 70
     1
102
RTVSPropertyOp24
 70
     1
102
RTVSPropertyOp25
 70
     1
102
RTVSPropertyOp26
 70
     1
102
RTVSPropertyOp27
 70
     1
  0
XRECORD
  5
288
102
{ACAD_REACTORS
330
287
102
}
330
287
100
AcDbXrecord
280
     1
102
RTVSPropertyOp0
 70
     1
102
RTVSPropertyOp1
 70
     1
102
RTVSPropertyOp2
 70
     1
102
RTVSPropertyOp3
 70
     1
102
RTVSPropertyOp4
 70
     1
102
RTVSPropertyOp5
 70
     1
102
RTVSPropertyOp6
 70
     1
102
RTVSPropertyOp7
 70
     1
102
RTVSPropertyOp8
 70
     1
102
RTVSPropertyOp9
 70
     1
102
RTVSPropertyOp10
 70
     1
102
RTVSPropertyOp11
 70
     1
102
RTVSPropertyOp12
 70
     1
102
RTVSPropertyOp13
 70
     1
102
RTVSPropertyOp14
 70
     1
102
RTVSPropertyOp15
 70
     1
102
RTVSPropertyOp16
 70
     1
102
RTVSPropertyOp17
 70
     1
102
RTVSPropertyOp18
 70
     1
102
RTVSPropertyOp19
 70
     1
102
RTVSPropertyOp20
 70
     1
102
RTVSPropertyOp21
 70
     1
102
RTVSPropertyOp22
 70
     1
102
RTVSPropertyOp23
 70
     1
102
RTVSPropertyOp24
 70
     1
102
RTVSPropertyOp25
 70
     1
102
RTVSPropertyOp26
 70
     1
102
RTVSPropertyOp27
 70
     1
  0
XRECORD
  5
27E
102
{ACAD_REACTORS
330
27D
102
}
330
27D
100
AcDbXrecord
280
     1
102
RTVSPropertyOp0
 70
     1
102
RTVSPropertyOp1
 70
     1
102
RTVSPropertyOp2
 70
     1
102
RTVSPropertyOp3
 70
     1
102
RTVSPropertyOp4
 70
     1
102
RTVSPropertyOp5
 70
     1
102
RTVSPropertyOp6
 70
     1
102
RTVSPropertyOp7
 70
     1
102
RTVSPropertyOp8
 70
     1
102
RTVSPropertyOp9
 70
     1
102
RTVSPropertyOp10
 70
     1
102
RTVSPropertyOp11
 70
     1
102
RTVSPropertyOp12
 70
     1
102
RTVSPropertyOp13
 70
     1
102
RTVSPropertyOp14
 70
     1
102
RTVSPropertyOp15
 70
     1
102
RTVSPropertyOp16
 70
     1
102
RTVSPropertyOp17
 70
     1
102
RTVSPropertyOp18
 70
     1
102
RTVSPropertyOp19
 70
     1
102
RTVSPropertyOp20
 70
     1
102
RTVSPropertyOp21
 70
     1
102
RTVSPropertyOp22
 70
     1
102
RTVSPropertyOp23
 70
     1
102
RTVSPropertyOp24
 70
     1
102
RTVSPropertyOp25
 70
     1
102
RTVSPropertyOp26
 70
     1
102
RTVSPropertyOp27
 70
     1
  0
XRECORD
  5
286
102
{ACAD_REACTORS
330
285
102
}
330
285
100
AcDbXrecord
280
     1
102
RTVSPropertyOp0
 70
     1
102
RTVSPropertyOp1
 70
     1
102
RTVSPropertyOp2
 70
     1
102
RTVSPropertyOp3
 70
     1
102
RTVSPropertyOp4
 70
     1
102
RTVSPropertyOp5
 70
     1
102
RTVSPropertyOp6
 70
     1
102
RTVSPropertyOp7
 70
     1
102
RTVSPropertyOp8
 70
     1
102
RTVSPropertyOp9
 70
     1
102
RTVSPropertyOp10
 70
     1
102
RTVSPropertyOp11
 70
     1
102
RTVSPropertyOp12
 70
     1
102
RTVSPropertyOp13
 70
     1
102
RTVSPropertyOp14
 70
     1
102
RTVSPropertyOp15
 70
     1
102
RTVSPropertyOp16
 70
     1
102
RTVSPropertyOp17
 70
     1
102
RTVSPropertyOp18
 70
     1
102
RTVSPropertyOp19
 70
     1
102
RTVSPropertyOp20
 70
     1
102
RTVSPropertyOp21
 70
     1
102
RTVSPropertyOp22
 70
     1
102
RTVSPropertyOp23
 70
     1
102
RTVSPropertyOp24
 70
     1
102
RTVSPropertyOp25
 70
     1
102
RTVSPropertyOp26
 70
     1
102
RTVSPropertyOp27
 70
     1
  0
ENDSEC
  0
EOF
