  0
SECTION
  2
HEADER
  9
$ACADVER
  1
AC1015
  9
$ACADMAINTVER
 70
     6
  9
$DWGCODEPAGE
  3
ANSI_932
  9
$INSBASE
 10
0.0
 20
0.0
 30
0.0
  9
$EXTMIN
 10
41.21141525032304
 20
4.24903029743507
 30
0.0
  9
$EXTMAX
 10
260.4956880123399
 20
141.5004785415128
 30
0.0
  9
$LIMMIN
 10
41.21141525032304
 20
4.24903029743507
  9
$LIMMAX
 10
260.4956880123399
 20
141.5004785415128
  9
$ORTHOMODE
 70
     0
  9
$REGENMODE
 70
     1
  9
$FILLMODE
 70
     1
  9
$QTEXTMODE
 70
     0
  9
$MIRRTEXT
 70
     1
  9
$LTSCALE
 40
1.0
  9
$ATTMODE
 70
     1
  9
$TEXTSIZE
 40
2.5
  9
$TRACEWID
 40
1.0
  9
$TEXTSTYLE
  7
Standard
  9
$CLAYER
  8
0
  9
$CELTYPE
  6
ByLayer
  9
$CECOLOR
 62
   256
  9
$CELTSCALE
 40
1.0
  9
$DISPSILH
 70
     0
  9
$DIMSCALE
 40
1.0
  9
$DIMASZ
 40
2.5
  9
$DIMEXO
 40
0.625
  9
$DIMDLI
 40
3.75
  9
$DIMRND
 40
0.0
  9
$DIMDLE
 40
0.0
  9
$DIMEXE
 40
1.25
  9
$DIMTP
 40
0.0
  9
$DIMTM
 40
0.0
  9
$DIMTXT
 40
2.5
  9
$DIMCEN
 40
2.5
  9
$DIMTSZ
 40
0.0
  9
$DIMTOL
 70
     0
  9
$DIMLIM
 70
     0
  9
$DIMTIH
 70
     0
  9
$DIMTOH
 70
     0
  9
$DIMSE1
 70
     0
  9
$DIMSE2
 70
     0
  9
$DIMTAD
 70
     1
  9
$DIMZIN
 70
     8
  9
$DIMBLK
  1

  9
$DIMASO
 70
     1
  9
$DIMSHO
 70
     1
  9
$DIMPOST
  1

  9
$DIMAPOST
  1

  9
$DIMALT
 70
     0
  9
$DIMALTD
 70
     3
  9
$DIMALTF
 40
0.03937007874016
  9
$DIMLFAC
 40
1.0
  9
$DIMTOFL
 70
     1
  9
$DIMTVP
 40
0.0
  9
$DIMTIX
 70
     0
  9
$DIMSOXD
 70
     0
  9
$DIMSAH
 70
     0
  9
$DIMBLK1
  1

  9
$DIMBLK2
  1

  9
$DIMSTYLE
  2
ISO-25
  9
$DIMCLRD
 70
     0
  9
$DIMCLRE
 70
     0
  9
$DIMCLRT
 70
     0
  9
$DIMTFAC
 40
1.0
  9
$DIMGAP
 40
0.625
  9
$DIMJUST
 70
     0
  9
$DIMSD1
 70
     0
  9
$DIMSD2
 70
     0
  9
$DIMTOLJ
 70
     0
  9
$DIMTZIN
 70
     8
  9
$DIMALTZ
 70
     0
  9
$DIMALTTZ
 70
     0
  9
$DIMUPT
 70
     0
  9
$DIMDEC
 70
     2
  9
$DIMTDEC
 70
     2
  9
$DIMALTU
 70
     2
  9
$DIMALTTD
 70
     3
  9
$DIMTXSTY
  7
Standard
  9
$DIMAUNIT
 70
     0
  9
$DIMADEC
 70
     0
  9
$DIMALTRND
 40
0.0
  9
$DIMAZIN
 70
     0
  9
$DIMDSEP
 70
    44
  9
$DIMATFIT
 70
     3
  9
$DIMFRAC
 70
     0
  9
$DIMLDRBLK
  1

  9
$DIMLUNIT
 70
     2
  9
$DIMLWD
 70
    -2
  9
$DIMLWE
 70
    -2
  9
$DIMTMOVE
 70
     0
  9
$LUNITS
 70
     2
  9
$LUPREC
 70
     4
  9
$SKETCHINC
 40
1.0
  9
$FILLETRAD
 40
10.0
  9
$AUNITS
 70
     0
  9
$AUPREC
 70
     0
  9
$MENU
  1
.
  9
$ELEVATION
 40
0.0
  9
$PELEVATION
 40
0.0
  9
$THICKNESS
 40
0.0
  9
$LIMCHECK
 70
     0
  9
$CHAMFERA
 40
10.0
  9
$CHAMFERB
 40
10.0
  9
$CHAMFERC
 40
20.0
  9
$CHAMFERD
 40
0.0
  9
$SKPOLY
 70
     0
  9
$TDCREATE
 40
2459163.655021482
  9
$TDUCREATE
 40
2459163.280021482
  9
$TDUPDATE
 40
2459163.655021493
  9
$TDUUPDATE
 40
2459163.280021493
  9
$TDINDWG
 40
0.0000000116
  9
$TDUSRTIMER
 40
0.0000000116
  9
$USRTIMER
 70
     1
  9
$ANGBASE
 50
0.0
  9
$ANGDIR
 70
     0
  9
$PDMODE
 70
     0
  9
$PDSIZE
 40
0.0
  9
$PLINEWID
 40
0.0
  9
$SPLFRAME
 70
     0
  9
$SPLINETYPE
 70
     6
  9
$SPLINESEGS
 70
     8
  9
$HANDSEED
  5
33C
  9
$SURFTAB1
 70
     6
  9
$SURFTAB2
 70
     6
  9
$SURFTYPE
 70
     6
  9
$SURFU
 70
     6
  9
$SURFV
 70
     6
  9
$UCSBASE
  2

  9
$UCSNAME
  2

  9
$UCSORG
 10
0.0
 20
0.0
 30
0.0
  9
$UCSXDIR
 10
1.0
 20
0.0
 30
0.0
  9
$UCSYDIR
 10
0.0
 20
1.0
 30
0.0
  9
$UCSORTHOREF
  2

  9
$UCSORTHOVIEW
 70
     0
  9
$UCSORGTOP
 10
0.0
 20
0.0
 30
0.0
  9
$UCSORGBOTTOM
 10
0.0
 20
0.0
 30
0.0
  9
$UCSORGLEFT
 10
0.0
 20
0.0
 30
0.0
  9
$UCSORGRIGHT
 10
0.0
 20
0.0
 30
0.0
  9
$UCSORGFRONT
 10
0.0
 20
0.0
 30
0.0
  9
$UCSORGBACK
 10
0.0
 20
0.0
 30
0.0
  9
$PUCSBASE
  2

  9
$PUCSNAME
  2

  9
$PUCSORG
 10
0.0
 20
0.0
 30
0.0
  9
$PUCSXDIR
 10
1.0
 20
0.0
 30
0.0
  9
$PUCSYDIR
 10
0.0
 20
1.0
 30
0.0
  9
$PUCSORTHOREF
  2

  9
$PUCSORTHOVIEW
 70
     0
  9
$PUCSORGTOP
 10
0.0
 20
0.0
 30
0.0
  9
$PUCSORGBOTTOM
 10
0.0
 20
0.0
 30
0.0
  9
$PUCSORGLEFT
 10
0.0
 20
0.0
 30
0.0
  9
$PUCSORGRIGHT
 10
0.0
 20
0.0
 30
0.0
  9
$PUCSORGFRONT
 10
0.0
 20
0.0
 30
0.0
  9
$PUCSORGBACK
 10
0.0
 20
0.0
 30
0.0
  9
$USERI1
 70
     0
  9
$USERI2
 70
     0
  9
$USERI3
 70
     0
  9
$USERI4
 70
     0
  9
$USERI5
 70
     0
  9
$USERR1
 40
0.0
  9
$USERR2
 40
0.0
  9
$USERR3
 40
0.0
  9
$USERR4
 40
0.0
  9
$USERR5
 40
0.0
  9
$WORLDVIEW
 70
     1
  9
$SHADEDGE
 70
     3
  9
$SHADEDIF
 70
    70
  9
$TILEMODE
 70
     1
  9
$MAXACTVP
 70
    64
  9
$PINSBASE
 10
0.0
 20
0.0
 30
0.0
  9
$PLIMCHECK
 70
     0
  9
$PEXTMIN
 10
1.000000000000000E+20
 20
1.000000000000000E+20
 30
1.000000000000000E+20
  9
$PEXTMAX
 10
-1.000000000000000E+20
 20
-1.000000000000000E+20
 30
-1.000000000000000E+20
  9
$PLIMMIN
 10
41.21141525032304
 20
4.24903029743507
  9
$PLIMMAX
 10
260.4956880123399
 20
141.5004785415128
  9
$UNITMODE
 70
     0
  9
$VISRETAIN
 70
     1
  9
$PLINEGEN
 70
     0
  9
$PSLTSCALE
 70
     1
  9
$TREEDEPTH
 70
  3020
  9
$CMLSTYLE
  2
Standard
  9
$CMLJUST
 70
     0
  9
$CMLSCALE
 40
20.0
  9
$PROXYGRAPHICS
 70
     1
  9
$MEASUREMENT
 70
     1
  9
$CELWEIGHT
370
    -1
  9
$ENDCAPS
280
     0
  9
$JOINSTYLE
280
     0
  9
$LWDISPLAY
290
     0
  9
$INSUNITS
 70
     4
  9
$HYPERLINKBASE
  1

  9
$STYLESHEET
  1

  9
$XEDIT
290
     1
  9
$CEPSNTYPE
380
     0
  9
$PSTYLEMODE
290
     1
  9
$FINGERPRINTGUID
  2
{83BE86D5-9003-4098-82CF-A22E0F839460}
  9
$VERSIONGUID
  2
{FAEB1C32-E019-11D5-929B-00C0DF256EC4}
  9
$EXTNAMES
290
     1
  9
$PSVPSCALE
 40
0.0
  9
$OLESTARTUP
290
     0
  0
ENDSEC
  0
SECTION
  2
CLASSES
  0
CLASS
  1
ACDBDICTIONARYWDFLT
  2
AcDbDictionaryWithDefault
  3
ObjectDBX Classes
 90
        0
280
     0
281
     0
  0
CLASS
  1
VISUALSTYLE
  2
AcDbVisualStyle
  3
ObjectDBX Classes
 90
     4095
280
     0
281
     0
  0
CLASS
  1
SCALE
  2
AcDbScale
  3
ObjectDBX Classes
 90
     1153
280
     0
281
     0
  0
CLASS
  1
DICTIONARYVAR
  2
AcDbDictionaryVar
  3
ObjectDBX Classes
 90
        0
280
     0
281
     0
  0
CLASS
  1
ACDBPLACEHOLDER
  2
AcDbPlaceHolder
  3
ObjectDBX Classes
 90
        0
280
     0
281
     0
  0
CLASS
  1
LAYOUT
  2
AcDbLayout
  3
ObjectDBX Classes
 90
        0
280
     0
281
     0
  0
ENDSEC
  0
SECTION
  2
TABLES
  0
TABLE
  2
VPORT
  5
8
330
0
100
AcDbSymbolTable
 70
     1
  0
VPORT
  5
29
330
8
100
AcDbSymbolTableRecord
100
AcDbViewportTableRecord
  2
*Active
 70
     0
 10
0.0
 20
0.0
 11
1.0
 21
1.0
 12
344.1869158878504
 22
148.5
 13
0.0
 23
0.0
 14
10.0
 24
10.0
 15
10.0
 25
10.0
 16
0.0
 26
0.0
 36
1.0
 17
0.0
 27
0.0
 37
0.0
 40
297.0
 41
1.972972972850329
 42
50.0
 43
0.0
 44
0.0
 50
0.0
 51
0.0
 71
     0
 72
   100
 73
     1
 74
     3
 75
     0
 76
     0
 77
     0
 78
     0
281
     0
 65
     1
110
0.0
120
0.0
130
0.0
111
1.0
121
0.0
131
0.0
112
0.0
122
1.0
132
0.0
 79
     0
146
0.0
  0
ENDTAB
  0
TABLE
  2
LTYPE
  5
5
330
0
100
AcDbSymbolTable
 70
     5
  0
LTYPE
  5
14
330
5
100
AcDbSymbolTableRecord
100
AcDbLinetypeTableRecord
  2
ByBlock
 70
     0
  3

 72
    65
 73
     0
 40
0.0
  0
LTYPE
  5
15
330
5
100
AcDbSymbolTableRecord
100
AcDbLinetypeTableRecord
  2
ByLayer
 70
     0
  3

 72
    65
 73
     0
 40
0.0
  0
LTYPE
  5
16
330
5
100
AcDbSymbolTableRecord
100
AcDbLinetypeTableRecord
  2
Continuous
 70
     0
  3
Solid line
 72
    65
 73
     0
 40
0.0
  0
LTYPE
  5
3B
330
5
100
AcDbSymbolTableRecord
100
AcDbLinetypeTableRecord
  2
CONTINOUS
 70
     0
  3
______________________________
 72
    65
 73
     0
 40
0.0
  0
LTYPE
  5
3C
330
5
100
AcDbSymbolTableRecord
100
AcDbLinetypeTableRecord
  2
DASHED
 70
     0
  3
__ __ __ __ __ __ __ __ __ __ __ __ __ __ __ __
 72
    65
 73
     2
 40
4.5
 49
3.0
 74
     0
 49
-1.5
 74
     0
  0
LTYPE
  5
3D
330
5
100
AcDbSymbolTableRecord
100
AcDbLinetypeTableRecord
  2
PHANTOM
 70
     0
  3
______  __  __  ______  __  __  _____
 72
    65
 73
     6
 40
15.0
 49
7.5
 74
     0
 49
-1.5
 74
     0
 49
1.5
 74
     0
 49
-1.5
 74
     0
 49
1.5
 74
     0
 49
-1.5
 74
     0
  0
LTYPE
  5
3E
330
5
100
AcDbSymbolTableRecord
100
AcDbLinetypeTableRecord
  2
CENTER
 70
     0
  3
____ _ ____ _ ____ _ ____ _ ____ _ ____
 72
    65
 73
     4
 40
12.0
 49
7.5
 74
     0
 49
-1.5
 74
     0
 49
1.5
 74
     0
 49
-1.5
 74
     0
  0
ENDTAB
  0
TABLE
  2
LAYER
  5
2
330
0
100
AcDbSymbolTable
 70
     2
  0
LAYER
  5
10
330
2
100
AcDbSymbolTableRecord
100
AcDbLayerTableRecord
  2
0
 70
     0
 62
     7
  6
Continuous
370
    -3
390
F
  0
LAYER
  5
26A
330
2
100
AcDbSymbolTableRecord
100
AcDbLayerTableRecord
  2
Defpoints
 70
     0
 62
     7
  6
Continuous
290
     0
370
    -3
390
F
  0
ENDTAB
  0
TABLE
  2
STYLE
  5
3
330
0
100
AcDbSymbolTable
 70
     1
  0
STYLE
  5
11
330
3
100
AcDbSymbolTableRecord
100
AcDbTextStyleTableRecord
  2
Standard
 70
     0
 40
0.0
 41
1.0
 50
0.0
 71
     0
 42
2.5
  3
ROMANS
  4
EXTFONT
  0
ENDTAB
  0
TABLE
  2
VIEW
  5
6
330
0
100
AcDbSymbolTable
 70
     0
  0
ENDTAB
  0
TABLE
  2
UCS
  5
7
330
0
100
AcDbSymbolTable
 70
     0
  0
ENDTAB
  0
TABLE
  2
APPID
  5
9
330
0
100
AcDbSymbolTable
 70
     1
  0
APPID
  5
12
330
9
100
AcDbSymbolTableRecord
100
AcDbRegAppTableRecord
  2
ACAD
 70
     0
  0
ENDTAB
  0
TABLE
  2
DIMSTYLE
  5
A
330
0
100
AcDbSymbolTable
 70
     1
100
AcDbDimStyleTable
  0
DIMSTYLE
105
27
102
{ACAD_REACTORS
330
263
330
276
330
282
330
297
330
2A3
330
2B3
330
2C0
330
2CD
330
2DA
330
2EA
330
2F9
330
308
102
}
330
A
100
AcDbSymbolTableRecord
100
AcDbDimStyleTableRecord
  2
ISO-25
 70
     0
 41
2.5
 42
0.625
 43
3.75
 44
1.25
 73
     0
 74
     0
 77
     1
 78
     8
140
2.5
141
2.5
143
0.03937007874016
147
0.625
171
     3
172
     1
271
     2
272
     2
274
     3
278
    44
283
     0
284
     8
340
11
  0
ENDTAB
  0
TABLE
  2
BLOCK_RECORD
  5
1
330
0
100
AcDbSymbolTable
 70
    20
  0
BLOCK_RECORD
  5
1F
330
1
100
AcDbSymbolTableRecord
100
AcDbBlockTableRecord
  2
*Model_Space
340
22
  0
BLOCK_RECORD
  5
1B
330
1
100
AcDbSymbolTableRecord
100
AcDbBlockTableRecord
  2
*Paper_Space
340
1E
  0
BLOCK_RECORD
  5
23
330
1
100
AcDbSymbolTableRecord
100
AcDbBlockTableRecord
  2
*Paper_Space0
340
26
  0
BLOCK_RECORD
  5
3F
330
1
100
AcDbSymbolTableRecord
100
AcDbBlockTableRecord
  2
DTL0001
340
0
102
{BLKREFS
331
256
102
}
  0
BLOCK_RECORD
  5
42
330
1
100
AcDbSymbolTableRecord
100
AcDbBlockTableRecord
  2
DTL0002
340
0
102
{BLKREFS
331
257
102
}
  0
BLOCK_RECORD
  5
45
330
1
100
AcDbSymbolTableRecord
100
AcDbBlockTableRecord
  2
DTL0003
340
0
102
{BLKREFS
331
258
102
}
  0
BLOCK_RECORD
  5
48
330
1
100
AcDbSymbolTableRecord
100
AcDbBlockTableRecord
  2
DTL0004
340
0
102
{BLKREFS
331
259
102
}
  0
BLOCK_RECORD
  5
25A
330
1
100
AcDbSymbolTableRecord
100
AcDbBlockTableRecord
  2
DIM0001
340
0
102
{BLKREFS
331
260
102
}
  0
BLOCK_RECORD
  5
264
330
1
100
AcDbSymbolTableRecord
100
AcDbBlockTableRecord
  2
_OPEN
340
0
102
{BLKREFS
331
26F
331
26E
331
27B
331
27A
331
287
331
286
331
29C
331
29B
331
2AC
331
2AB
331
2B9
331
2B8
331
2C6
331
2C5
331
2D3
331
2D2
331
2E3
331
2E2
331
2F2
331
2F1
331
301
331
300
331
30D
331
30C
102
}
  0
BLOCK_RECORD
  5
26B
330
1
100
AcDbSymbolTableRecord
100
AcDbBlockTableRecord
  2
*D7
340
0
  0
BLOCK_RECORD
  5
277
330
1
100
AcDbSymbolTableRecord
100
AcDbBlockTableRecord
  2
*D8
340
0
  0
BLOCK_RECORD
  5
283
330
1
100
AcDbSymbolTableRecord
100
AcDbBlockTableRecord
  2
*D9
340
0
  0
BLOCK_RECORD
  5
28E
330
1
100
AcDbSymbolTableRecord
100
AcDbBlockTableRecord
  2
DIM0002
340
0
102
{BLKREFS
331
294
102
}
  0
BLOCK_RECORD
  5
298
330
1
100
AcDbSymbolTableRecord
100
AcDbBlockTableRecord
  2
*D11
340
0
  0
BLOCK_RECORD
  5
2A4
330
1
100
AcDbSymbolTableRecord
100
AcDbBlockTableRecord
  2
*D12
340
0
  0
BLOCK_RECORD
  5
2B4
330
1
100
AcDbSymbolTableRecord
100
AcDbBlockTableRecord
  2
*D13
340
0
  0
BLOCK_RECORD
  5
2C1
330
1
100
AcDbSymbolTableRecord
100
AcDbBlockTableRecord
  2
*D14
340
0
  0
BLOCK_RECORD
  5
2CE
330
1
100
AcDbSymbolTableRecord
100
AcDbBlockTableRecord
  2
*D15
340
0
  0
BLOCK_RECORD
  5
2DB
330
1
100
AcDbSymbolTableRecord
100
AcDbBlockTableRecord
  2
*D16
340
0
  0
BLOCK_RECORD
  5
2EB
330
1
100
AcDbSymbolTableRecord
100
AcDbBlockTableRecord
  2
*D17
340
0
  0
BLOCK_RECORD
  5
2FA
330
1
100
AcDbSymbolTableRecord
100
AcDbBlockTableRecord
  2
*D18
340
0
  0
BLOCK_RECORD
  5
309
330
1
100
AcDbSymbolTableRecord
100
AcDbBlockTableRecord
  2
*D19
340
0
  0
ENDTAB
  0
ENDSEC
  0
SECTION
  2
BLOCKS
  0
BLOCK
  5
20
330
1F
100
AcDbEntity
  8
0
100
AcDbBlockBegin
  2
*Model_Space
 70
     0
 10
0.0
 20
0.0
 30
0.0
  3
*Model_Space
  1

  0
ENDBLK
  5
21
330
1F
100
AcDbEntity
  8
0
100
AcDbBlockEnd
  0
BLOCK
  5
1C
330
1B
100
AcDbEntity
 67
     1
  8
0
100
AcDbBlockBegin
  2
*Paper_Space
 70
     0
 10
0.0
 20
0.0
 30
0.0
  3
*Paper_Space
  1

  0
ENDBLK
  5
1D
330
1B
100
AcDbEntity
 67
     1
  8
0
100
AcDbBlockEnd
  0
BLOCK
  5
24
330
23
100
AcDbEntity
  8
0
100
AcDbBlockBegin
  2
*Paper_Space0
 70
     0
 10
0.0
 20
0.0
 30
0.0
  3
*Paper_Space0
  1

  0
ENDBLK
  5
25
330
23
100
AcDbEntity
  8
0
100
AcDbBlockEnd
  0
BLOCK
  5
40
330
3F
100
AcDbEntity
  8
0
100
AcDbBlockBegin
  2
DTL0001
 70
     0
 10
0.0
 20
0.0
 30
0.0
  3
DTL0001
  1

  0
POINT
  5
4B
330
3F
100
AcDbEntity
  8
0
 62
    31
100
AcDbPoint
 10
-12.30000000000001
 20
21.45936120442623
 30
0.0
  0
POINT
  5
4C
330
3F
100
AcDbEntity
  8
0
 62
    31
100
AcDbPoint
 10
34.29999999999999
 20
-2.749999999999999
 30
0.0
  0
POINT
  5
4D
330
3F
100
AcDbEntity
  8
0
 62
    31
100
AcDbPoint
 10
34.29999999999999
 20
34.30000000000003
 30
0.0
  0
POINT
  5
4E
330
3F
100
AcDbEntity
  8
0
 62
    31
100
AcDbPoint
 10
-12.30000000000001
 20
-2.750000000000028
 30
0.0
  0
POINT
  5
4F
330
3F
100
AcDbEntity
  8
0
 62
    31
100
AcDbPoint
 10
14.34168760482229
 20
34.50000000000001
 30
0.0
  0
POINT
  5
50
330
3F
100
AcDbEntity
  8
0
 62
    31
100
AcDbPoint
 10
35.29999999999999
 20
2.999999999999545
 30
0.0
  0
POINT
  5
51
330
3F
100
AcDbEntity
  8
0
 62
    31
100
AcDbPoint
 10
-13.05000000000001
 20
23.1603230987496
 30
0.0
  0
POINT
  5
52
330
3F
100
AcDbEntity
  8
0
 62
    31
100
AcDbPoint
 10
-6.185491840485383
 20
35.05000000000003
 30
0.0
  0
POINT
  5
53
330
3F
100
AcDbEntity
  8
0
 62
    31
100
AcDbPoint
 10
-4.770983680970801
 20
34.50000000000001
 30
0.0
  0
POINT
  5
54
330
3F
100
AcDbEntity
  8
0
 62
    31
100
AcDbPoint
 10
17.6583123951777
 20
34.50000000000001
 30
0.0
  0
POINT
  5
55
330
3F
100
AcDbEntity
  8
0
 62
     4
100
AcDbPoint
 10
0.0
 20
0.0
 30
0.0
  0
LINE
  5
56
330
3F
100
AcDbEntity
  8
0
  6
Continuous
 62
    31
100
AcDbLine
 10
-14.00000000000003
 20
25.60769515458676
 30
0.0
 11
-8.000000000000028
 21
36.00000000000002
 31
0.0
  0
LINE
  5
57
330
3F
100
AcDbEntity
  8
0
  6
Continuous
 62
    31
100
AcDbLine
 10
35.99999999999999
 20
36.00000000000008
 30
0.0
 11
35.99999999999999
 21
-4.00000000000002
 31
0.0
  0
LINE
  5
58
330
3F
100
AcDbEntity
  8
0
  6
DASHED
 62
    31
100
AcDbLine
 10
34.58746859276649
 20
-0.500000000000455
 30
0.0
 11
35.99999999999999
 21
-0.500000000000455
 31
0.0
  0
LINE
  5
59
330
3F
100
AcDbEntity
  8
0
  6
DASHED
 62
    31
100
AcDbLine
 10
34.59999999999999
 20
6.499999999999559
 30
0.0
 11
35.99999999999999
 21
6.499999999999559
 31
0.0
  0
LINE
  5
5A
330
3F
100
AcDbEntity
  8
0
  6
Continuous
 62
    31
100
AcDbLine
 10
-3.0
 20
0.000000000000008
 30
0.0
 11
-3.0
 21
-0.25000000000002
 31
0.0
  0
LINE
  5
5B
330
3F
100
AcDbEntity
  8
0
  6
DASHED
 62
    31
100
AcDbLine
 10
-12.30000000000001
 20
20.78948822334845
 30
0.0
 11
-12.30000000000001
 21
-0.25000000000002
 31
0.0
  0
LINE
  5
5C
330
3F
100
AcDbEntity
  8
0
  6
DASHED
 62
    31
100
AcDbLine
 10
-8.649999999999988
 20
34.87416697508032
 30
0.0
 11
-5.578718707889749
 21
33.10096189432341
 31
0.0
  0
LINE
  5
5D
330
3F
100
AcDbEntity
  8
0
  6
DASHED
 62
    31
100
AcDbLine
 10
-11.96506350946114
 20
22.03948822334841
 30
0.0
 11
-5.492671517457865
 21
33.25000000000004
 31
0.0
  0
LINE
  5
5E
330
3F
100
AcDbEntity
  8
0
  6
Continuous
 62
    31
100
AcDbLine
 10
3.0
 20
0.000000000000008
 30
0.0
 11
3.0
 21
-0.250000000000006
 31
0.0
  0
LINE
  5
5F
330
3F
100
AcDbEntity
  8
0
  6
DASHED
 62
    31
100
AcDbLine
 10
5.5
 20
-2.749999999999999
 30
0.0
 11
32.09999999999999
 21
-2.749999999999999
 31
0.0
  0
LINE
  5
60
330
3F
100
AcDbEntity
  8
0
  6
DASHED
 62
    31
100
AcDbLine
 10
34.59999999999999
 20
32.00000000000002
 30
0.0
 11
34.59999999999999
 21
-0.250000000000006
 31
0.0
  0
LINE
  5
61
330
3F
100
AcDbEntity
  8
0
  6
DASHED
 62
    31
100
AcDbLine
 10
-3.32760800799673
 20
34.50000000000001
 30
0.0
 11
10.5
 21
34.50000000000001
 31
0.0
  0
LINE
  5
62
330
3F
100
AcDbEntity
  8
0
  6
DASHED
 62
    31
100
AcDbLine
 10
-9.800000000000011
 20
-2.750000000000028
 30
0.0
 11
-5.5
 21
-2.750000000000028
 31
0.0
  0
LINE
  5
63
330
3F
100
AcDbEntity
  8
0
  6
DASHED
 62
    31
100
AcDbLine
 10
21.49999999999999
 20
34.50000000000001
 30
0.0
 11
32.09999999999999
 21
34.50000000000001
 31
0.0
  0
LINE
  5
64
330
3F
100
AcDbEntity
  8
0
  6
DASHED
 62
    31
100
AcDbLine
 10
-13.49999999999995
 20
26.47372055837127
 30
0.0
 11
-10.42871870788973
 21
24.70051547761438
 31
0.0
  0
LINE
  5
65
330
3F
100
AcDbEntity
  8
0
  6
DASHED
 62
    31
100
AcDbLine
 10
-8.499999999999957
 20
35.1339745962157
 30
0.0
 11
-5.42871870788974
 21
33.36076951545881
 31
0.0
  0
LINE
  5
66
330
3F
100
AcDbEntity
  8
0
  6
DASHED
 62
    31
100
AcDbLine
 10
-13.34999999999997
 20
26.73352817950667
 30
0.0
 11
-10.27871870788971
 21
24.96032309874975
 31
0.0
  0
LINE
  5
67
330
3F
100
AcDbEntity
  8
0
  6
Continuous
 62
    31
100
AcDbLine
 10
-14.0
 20
-4.000000000000028
 30
0.0
 11
35.99999999999999
 21
-4.000000000000028
 31
0.0
  0
LINE
  5
68
330
3F
100
AcDbEntity
  8
0
  6
Continuous
 62
    31
100
AcDbLine
 10
-8.0
 20
36.00000000000007
 30
0.0
 11
35.99999999999999
 21
36.00000000000007
 31
0.0
  0
LINE
  5
69
330
3F
100
AcDbEntity
  8
0
  6
Continuous
 62
    31
100
AcDbLine
 10
-14.0
 20
25.60769515458681
 30
0.0
 11
-14.0
 21
-4.00000000000002
 31
0.0
  0
LINE
  5
6A
330
3F
100
AcDbEntity
  8
0
  6
DASHED
 62
    31
100
AcDbLine
 10
-14.0
 20
11.00000000000001
 30
0.0
 11
-13.05000000000001
 21
11.00000000000001
 31
0.0
  0
LINE
  5
6B
330
3F
100
AcDbEntity
  8
0
  6
DASHED
 62
    31
100
AcDbLine
 10
11.0
 20
-3.000000000000006
 30
0.0
 11
11.0
 21
-4.00000000000002
 31
0.0
  0
LINE
  5
6C
330
3F
100
AcDbEntity
  8
0
  6
CENTER
 62
    31
100
AcDbLine
 10
33.43826838941744
 20
21.00000000000001
 30
0.0
 11
37.44189733911845
 21
21.00000000000001
 31
0.0
  0
LINE
  5
6D
330
3F
100
AcDbEntity
  8
0
  6
DASHED
 62
    31
100
AcDbLine
 10
11.0
 20
36.00000000000008
 30
0.0
 11
11.0
 21
35.05000000000003
 31
0.0
  0
LINE
  5
6E
330
3F
100
AcDbEntity
  8
0
  6
CENTER
 62
    31
100
AcDbLine
 10
11.0
 20
32.72846439530465
 30
0.0
 11
11.0
 21
37.49140228374207
 31
0.0
  0
LINE
  5
6F
330
3F
100
AcDbEntity
  8
0
  6
CENTER
 62
    31
100
AcDbLine
 10
-11.15387474001096
 20
11.00000000000001
 30
0.0
 11
-15.29555986039131
 21
11.00000000000001
 31
0.0
  0
LINE
  5
70
330
3F
100
AcDbEntity
  8
0
  6
CENTER
 62
    31
100
AcDbLine
 10
11.0
 20
0.078180029639548
 30
0.0
 11
11.0
 21
-7.652965528403761
 31
0.0
  0
LINE
  5
71
330
3F
100
AcDbEntity
  8
0
  6
CENTER
 62
    31
100
AcDbLine
 10
33.43826838941744
 20
2.999999999999545
 30
0.0
 11
37.44189733911845
 21
2.999999999999545
 31
0.0
  0
LINE
  5
72
330
3F
100
AcDbEntity
  8
0
  6
CENTER
 62
    31
100
AcDbLine
 10
-15.99886899581434
 20
33.6899459376705
 30
0.0
 11
-6.891693667869548
 21
28.43191581052446
 31
0.0
  0
LINE
  5
73
330
3F
100
AcDbEntity
  8
0
  6
PHANTOM
 62
    31
100
AcDbLine
 10
-12.84903810567669
 20
23.60121963313051
 30
0.0
 11
-6.672094380863893
 21
34.30000000000002
 31
0.0
  0
LINE
  5
74
330
3F
100
AcDbEntity
  8
0
  6
DASHED
 62
    31
100
AcDbLine
 10
-8.649999999999997
 20
34.87416697508036
 30
0.0
 11
-5.578718707889733
 21
33.10096189432344
 31
0.0
  0
LINE
  5
75
330
3F
100
AcDbEntity
  8
0
  6
DASHED
 62
    31
100
AcDbLine
 10
-13.49999999999997
 20
26.47372055837129
 30
0.0
 11
-10.42871870788974
 21
24.70051547761439
 31
0.0
  0
LINE
  5
76
330
3F
100
AcDbEntity
  8
0
  6
DASHED
 62
    31
100
AcDbLine
 10
-8.499999999999986
 20
35.13397459621572
 30
0.0
 11
-5.428718707889757
 21
33.36076951545881
 31
0.0
  0
LINE
  5
77
330
3F
100
AcDbEntity
  8
0
  6
DASHED
 62
    31
100
AcDbLine
 10
-13.34999999999998
 20
26.73352817950666
 30
0.0
 11
-10.27871870788973
 21
24.96032309874974
 31
0.0
  0
LINE
  5
78
330
3F
100
AcDbEntity
  8
0
  6
DASHED
 62
    31
100
AcDbLine
 10
11.84999999999999
 20
35.00000000000001
 30
0.0
 11
11.84999999999999
 21
36.00000000000001
 31
0.0
  0
LINE
  5
79
330
3F
100
AcDbEntity
  8
0
  6
DASHED
 62
    31
100
AcDbLine
 10
10.15
 20
35.00000000000001
 30
0.0
 11
10.15
 21
36.00000000000001
 31
0.0
  0
LINE
  5
7A
330
3F
100
AcDbEntity
  8
0
  6
DASHED
 62
    31
100
AcDbLine
 10
11.84999999999999
 20
-2.75
 30
0.0
 11
11.84999999999999
 21
-3.749999999999986
 31
0.0
  0
LINE
  5
7B
330
3F
100
AcDbEntity
  8
0
  6
DASHED
 62
    31
100
AcDbLine
 10
10.15
 20
-2.75
 30
0.0
 11
10.15
 21
-3.749999999999986
 31
0.0
  0
LINE
  5
7C
330
3F
100
AcDbEntity
  8
0
  6
PHANTOM
 62
    31
100
AcDbLine
 10
-10.88236610784268
 20
-3.0
 30
0.0
 11
32.88236610784264
 21
-3.0
 31
0.0
  0
LINE
  5
7D
330
3F
100
AcDbEntity
  8
0
  6
PHANTOM
 62
    31
100
AcDbLine
 10
-13.05000000000002
 20
22.85121963313051
 30
0.0
 11
-13.05000000000002
 21
-0.941658497253826
 31
0.0
  0
LINE
  5
7E
330
3F
100
AcDbEntity
  8
0
  6
PHANTOM
 62
    31
100
AcDbLine
 10
-5.373056275187231
 20
35.05000000000003
 30
0.0
 11
32.94165849725373
 21
35.05000000000003
 31
0.0
  0
LINE
  5
7F
330
3F
100
AcDbEntity
  8
0
  6
DASHED
 62
    31
100
AcDbLine
 10
-13.00000000000001
 20
10.15000000000002
 30
0.0
 11
-14.00000000000001
 21
10.15000000000002
 31
0.0
  0
LINE
  5
80
330
3F
100
AcDbEntity
  8
0
  6
DASHED
 62
    31
100
AcDbLine
 10
-13.00000000000001
 20
11.85000000000001
 30
0.0
 11
-14.00000000000001
 21
11.85000000000001
 31
0.0
  0
LINE
  5
81
330
3F
100
AcDbEntity
  8
0
  6
DASHED
 62
    31
100
AcDbLine
 10
34.99999999999999
 20
20.15000000000002
 30
0.0
 11
35.99999999999998
 21
20.15000000000002
 31
0.0
  0
LINE
  5
82
330
3F
100
AcDbEntity
  8
0
  6
DASHED
 62
    31
100
AcDbLine
 10
34.99999999999999
 20
21.85000000000001
 30
0.0
 11
35.99999999999998
 21
21.85000000000001
 31
0.0
  0
LINE
  5
83
330
3F
100
AcDbEntity
  8
0
  6
PHANTOM
 62
    31
100
AcDbLine
 10
34.99999999999999
 20
32.88236610784277
 30
0.0
 11
34.99999999999999
 21
-0.882366107842714
 31
0.0
  0
ARC
  5
84
330
3F
100
AcDbEntity
  8
0
  6
DASHED
 62
    31
100
AcDbCircle
 10
21.49999999999999
 20
32.00000000000001
 30
0.0
 40
2.5
100
AcDbArc
 50
90.0
 51
180.0
  0
CIRCLE
  5
85
330
3F
100
AcDbEntity
  8
0
  6
Continuous
 62
    31
100
AcDbCircle
 10
-7.900000000000006
 20
9.899999999999991
 30
0.0
 40
1.55
  0
ARC
  5
86
330
3F
100
AcDbEntity
  8
0
  6
DASHED
 62
    31
100
AcDbCircle
 10
-3.32760800799673
 20
32.00000000000001
 30
0.0
 40
2.5
100
AcDbArc
 50
90.0
 51
149.9999999999999
  0
CIRCLE
  5
87
330
3F
100
AcDbEntity
  8
0
  6
Continuous
 62
    31
100
AcDbCircle
 10
15.99999999999999
 20
32.00000000000001
 30
0.0
 40
1.75
  0
ARC
  5
88
330
3F
100
AcDbEntity
  8
0
  6
DASHED
 62
    31
100
AcDbCircle
 10
5.5
 20
-0.25
 30
0.0
 40
2.5
100
AcDbArc
 50
180.0
 51
270.0
  0
ARC
  5
89
330
3F
100
AcDbEntity
  8
0
  6
DASHED
 62
    31
100
AcDbCircle
 10
0.0
 20
0.0
 30
0.0
 40
3.0
100
AcDbArc
 50
0.0
 51
180.0
  0
CIRCLE
  5
8A
330
3F
100
AcDbEntity
  8
0
  6
Continuous
 62
    31
100
AcDbCircle
 10
15.99999999999999
 20
32.00000000000001
 30
0.0
 40
1.75
  0
ARC
  5
8B
330
3F
100
AcDbEntity
  8
0
  6
DASHED
 62
    31
100
AcDbCircle
 10
-5.5
 20
-0.250000000000028
 30
0.0
 40
2.5
100
AcDbArc
 50
270.0
 51
0.0
  0
ARC
  5
8C
330
3F
100
AcDbEntity
  8
0
  6
DASHED
 62
    31
100
AcDbCircle
 10
-9.800000000000011
 20
-0.250000000000028
 30
0.0
 40
2.5
100
AcDbArc
 50
180.0
 51
270.0
  0
ARC
  5
8D
330
3F
100
AcDbEntity
  8
0
  6
DASHED
 62
    31
100
AcDbCircle
 10
32.09999999999999
 20
-0.25
 30
0.0
 40
2.5
100
AcDbArc
 50
270.0
 51
0.0
  0
ARC
  5
8E
330
3F
100
AcDbEntity
  8
0
  6
DASHED
 62
    31
100
AcDbCircle
 10
32.09999999999999
 20
32.00000000000001
 30
0.0
 40
2.5
100
AcDbArc
 50
0.0
 51
90.00000000000001
  0
ARC
  5
8F
330
3F
100
AcDbEntity
  8
0
  6
DASHED
 62
    31
100
AcDbCircle
 10
-9.800000000000011
 20
20.78948822334844
 30
0.0
 40
2.5
100
AcDbArc
 50
149.9999999999999
 51
180.0
  0
CIRCLE
  5
90
330
3F
100
AcDbEntity
  8
0
  6
Continuous
 62
    31
100
AcDbCircle
 10
0.0
 20
0.0
 30
0.0
 40
1.75
  0
ARC
  5
91
330
3F
100
AcDbEntity
  8
0
  6
DASHED
 62
    31
100
AcDbCircle
 10
15.99999999999999
 20
32.00000000000001
 30
0.0
 40
3.0
100
AcDbArc
 50
180.0
 51
0.0
  0
ARC
  5
92
330
3F
100
AcDbEntity
  8
0
  6
DASHED
 62
    31
100
AcDbCircle
 10
10.5
 20
32.00000000000001
 30
0.0
 40
2.5
100
AcDbArc
 50
0.0
 51
90.00000000000001
  0
ARC
  5
93
330
3F
100
AcDbEntity
  8
0
  6
PHANTOM
 62
    31
100
AcDbCircle
 10
-5.373056275187231
 20
33.55000000000003
 30
0.0
 40
1.5
100
AcDbArc
 50
90.0
 51
150.0
  0
ARC
  5
94
330
3F
100
AcDbEntity
  8
0
  6
PHANTOM
 62
    31
100
AcDbCircle
 10
-11.55000000000002
 20
22.85121963313051
 30
0.0
 40
1.5
100
AcDbArc
 50
150.0
 51
180.0
  0
ARC
  5
95
330
3F
100
AcDbEntity
  8
0
  6
PHANTOM
 62
    31
100
AcDbCircle
 10
33.87867965644033
 20
33.87867965644041
 30
0.0
 40
1.5
100
AcDbArc
 50
318.3783269041246
 51
128.6587608595669
  0
ARC
  5
96
330
3F
100
AcDbEntity
  8
0
  6
PHANTOM
 62
    31
100
AcDbCircle
 10
33.87867965644033
 20
-1.878679656440369
 30
0.0
 40
1.5
100
AcDbArc
 50
228.3783269041227
 51
41.62167309587574
  0
CIRCLE
  5
97
330
3F
100
AcDbEntity
  8
0
  6
PHANTOM
 62
    31
100
AcDbCircle
 10
-7.900000000000013
 20
9.899999999999991
 30
0.0
 40
1.55
  0
CIRCLE
  5
98
330
3F
100
AcDbEntity
  8
0
  6
PHANTOM
 62
    31
100
AcDbCircle
 10
15.99999999999999
 20
32.00000000000001
 30
0.0
 40
1.75
  0
ARC
  5
99
330
3F
100
AcDbEntity
  8
0
  6
PHANTOM
 62
    31
100
AcDbCircle
 10
-11.87867965644035
 20
-1.878679656440369
 30
0.0
 40
1.5
100
AcDbArc
 50
141.3412391404349
 51
311.6216730958773
  0
ENDBLK
  5
41
330
3F
100
AcDbEntity
  8
0
100
AcDbBlockEnd
  0
BLOCK
  5
43
330
42
100
AcDbEntity
  8
0
100
AcDbBlockBegin
  2
DTL0002
 70
     0
 10
0.0
 20
0.0
 30
0.0
  3
DTL0002
  1

  0
POINT
  5
9A
330
42
100
AcDbEntity
  8
0
 62
     0
100
AcDbPoint
 10
0.0
 20
0.0
 30
0.0
  0
POINT
  5
9B
330
42
100
AcDbEntity
  8
0
 62
     0
100
AcDbPoint
 10
15.6025000000004
 20
0.0
 30
0.0
  0
LINE
  5
9C
330
42
100
AcDbEntity
  8
0
  6
Continuous
 62
     3
100
AcDbLine
 10
-3.912001654286001
 20
5.008038699029793
 30
0.0
 11
-3.6624999422649
 21
-5.008042139622703
 31
0.0
  0
LINE
  5
9D
330
42
100
AcDbEntity
  8
0
  6
Continuous
 62
     3
100
AcDbLine
 10
-3.412001654286001
 20
5.008038699029789
 30
0.0
 11
-3.162499942264901
 21
-5.008042139622709
 31
0.0
  0
LINE
  5
9E
330
42
100
AcDbEntity
  8
0
  6
Continuous
 62
     3
100
AcDbLine
 10
-2.912001654286004
 20
5.008038699029797
 30
0.0
 11
-2.662499942264904
 21
-5.008042139622701
 31
0.0
  0
LINE
  5
9F
330
42
100
AcDbEntity
  8
0
  6
Continuous
 62
     3
100
AcDbLine
 10
-2.412001654286008
 20
5.008038699029798
 30
0.0
 11
-2.162499942264908
 21
-5.008042139622706
 31
0.0
  0
LINE
  5
A0
330
42
100
AcDbEntity
  8
0
  6
Continuous
 62
     3
100
AcDbLine
 10
-1.912001654286006
 20
5.008038699029786
 30
0.0
 11
-1.662499942264906
 21
-5.008042139622711
 31
0.0
  0
LINE
  5
A1
330
42
100
AcDbEntity
  8
0
  6
Continuous
 62
     3
100
AcDbLine
 10
-1.412001654286005
 20
5.008038699029794
 30
0.0
 11
-1.162499942264905
 21
-5.008042139622702
 31
0.0
  0
LINE
  5
A2
330
42
100
AcDbEntity
  8
0
  6
Continuous
 62
     3
100
AcDbLine
 10
-0.912001654286003
 20
5.008038699029797
 30
0.0
 11
-0.662499942264902
 21
-5.008042139622701
 31
0.0
  0
LINE
  5
A3
330
42
100
AcDbEntity
  8
0
  6
Continuous
 62
     3
100
AcDbLine
 10
-3.912499942264892
 20
-4.719367000000104
 30
0.0
 11
-4.099761721273692
 21
2.365670424053401
 31
0.0
  0
LINE
  5
A4
330
42
100
AcDbEntity
  8
0
  6
Continuous
 62
     3
100
AcDbLine
 10
-3.412499942264904
 20
-4.719367000000114
 30
0.0
 11
-3.661971330296108
 21
4.719366999999994
 31
0.0
  0
LINE
  5
A5
330
42
100
AcDbEntity
  8
0
  6
Continuous
 62
     3
100
AcDbLine
 10
-2.912499942264903
 20
-4.719367000000104
 30
0.0
 11
-3.161971330296106
 21
4.719366999999997
 31
0.0
  0
LINE
  5
A6
330
42
100
AcDbEntity
  8
0
  6
Continuous
 62
     3
100
AcDbLine
 10
-2.412499942264902
 20
-4.719367000000102
 30
0.0
 11
-2.661971330296106
 21
4.719366999999998
 31
0.0
  0
LINE
  5
A7
330
42
100
AcDbEntity
  8
0
  6
Continuous
 62
     3
100
AcDbLine
 10
-1.912499942264909
 20
-4.719367000000101
 30
0.0
 11
-2.161971330296113
 21
4.719367000000006
 31
0.0
  0
LINE
  5
A8
330
42
100
AcDbEntity
  8
0
  6
Continuous
 62
     3
100
AcDbLine
 10
-1.412499942264908
 20
-4.719367000000107
 30
0.0
 11
-1.661971330296112
 21
4.719367000000001
 31
0.0
  0
LINE
  5
A9
330
42
100
AcDbEntity
  8
0
  6
Continuous
 62
     3
100
AcDbLine
 10
-0.9124999422649
 20
-4.719367000000112
 30
0.0
 11
-1.161971330296104
 21
4.719366999999989
 31
0.0
  0
LINE
  5
AA
330
42
100
AcDbEntity
  8
0
  6
Continuous
 62
     3
100
AcDbLine
 10
5.702500000000301
 20
1.54224925504529
 30
0.0
 11
5.612499942265403
 21
5.508042139622588
 31
0.0
  0
LINE
  5
AB
330
42
100
AcDbEntity
  8
0
  6
Continuous
 62
     3
100
AcDbLine
 10
5.702500000000281
 20
5.388241835999695
 30
0.0
 11
5.643749855662386
 21
5.489999999999882
 31
0.0
  0
LINE
  5
AC
330
42
100
AcDbEntity
  8
0
  6
Continuous
 62
     3
100
AcDbLine
 10
-4.200000000000002
 20
-0.000000000000003
 30
0.0
 11
-4.199999999999803
 21
4.619366999999994
 31
0.0
  0
LINE
  5
AD
330
42
100
AcDbEntity
  8
0
  6
Continuous
 62
     3
100
AcDbLine
 10
2.3
 20
5.500000000000695
 30
0.0
 11
2.299999999999901
 21
5.290000000001099
 31
0.0
  0
LINE
  5
AE
330
42
100
AcDbEntity
  8
0
  6
Continuous
 62
     3
100
AcDbLine
 10
1.799999999999899
 20
5.999999999999999
 30
0.0
 11
2.299999999999999
 21
5.500000000000695
 31
0.0
  0
LINE
  5
AF
330
42
100
AcDbEntity
  8
0
  6
Continuous
 62
     3
100
AcDbLine
 10
1.799999999999901
 20
5.999999999999996
 30
0.0
 11
0.299999999999901
 21
6.000000000000892
 31
0.0
  0
LINE
  5
B0
330
42
100
AcDbEntity
  8
0
  6
Continuous
 62
     3
100
AcDbLine
 10
0.299999999999898
 20
0.834936490537999
 30
0.0
 11
0.299999999999898
 21
5.165063509461099
 31
0.0
  0
LINE
  5
B1
330
42
100
AcDbEntity
  8
0
  6
Continuous
 62
     3
100
AcDbLine
 10
1.799999999999996
 20
0.834936490538894
 30
0.0
 11
0.299999999999897
 21
0.834936490537998
 31
0.0
  0
LINE
  5
B2
330
42
100
AcDbEntity
  8
0
  6
Continuous
 62
     3
100
AcDbLine
 10
0.299999999999898
 20
0.0
 30
0.0
 11
0.299999999999898
 21
0.834936490537999
 31
0.0
  0
LINE
  5
B3
330
42
100
AcDbEntity
  8
0
  6
Continuous
 62
     3
100
AcDbLine
 10
1.799999999999899
 20
0.000000000000001
 30
0.0
 11
1.799999999999998
 21
0.834936490538895
 31
0.0
  0
LINE
  5
B4
330
42
100
AcDbEntity
  8
0
  6
Continuous
 62
     3
100
AcDbLine
 10
2.299999999999998
 20
-0.000000000000002
 30
0.0
 11
2.299999999999899
 21
5.290686516703096
 31
0.0
  0
LINE
  5
B5
330
42
100
AcDbEntity
  8
0
  6
Continuous
 62
     3
100
AcDbLine
 10
1.799999999999898
 20
6.0
 30
0.0
 11
1.799999999999898
 21
5.165063509461099
 31
0.0
  0
LINE
  5
B6
330
42
100
AcDbEntity
  8
0
  6
Continuous
 62
     3
100
AcDbLine
 10
1.799999999999899
 20
5.165063509461097
 30
0.0
 11
0.299999999999899
 21
5.165063509461097
 31
0.0
  0
LINE
  5
B7
330
42
100
AcDbEntity
  8
0
  6
Continuous
 62
     3
100
AcDbLine
 10
0.299999999999898
 20
5.165063509461099
 30
0.0
 11
0.299999999999898
 21
6.000000000000895
 31
0.0
  0
LINE
  5
B8
330
42
100
AcDbEntity
  8
0
  6
Continuous
 62
     3
100
AcDbLine
 10
0.0
 20
2.112270952057997
 30
0.0
 11
0.0
 21
0.0
 31
0.0
  0
LINE
  5
B9
330
42
100
AcDbEntity
  8
0
  6
Continuous
 62
     3
100
AcDbLine
 10
0.0
 20
5.3017424305053
 30
0.0
 11
0.0
 21
2.112270952057997
 31
0.0
  0
LINE
  5
BA
330
42
100
AcDbEntity
  8
0
  6
Continuous
 62
     3
100
AcDbLine
 10
6.002500000000396
 20
6.0
 30
0.0
 11
6.002500000000396
 21
5.165063509461
 31
0.0
  0
LINE
  5
BB
330
42
100
AcDbEntity
  8
0
  6
Continuous
 62
     3
100
AcDbLine
 10
6.002500000000397
 20
5.999999999999998
 30
0.0
 11
12.5000000000004
 21
5.999999999999998
 31
0.0
  0
LINE
  5
BC
330
42
100
AcDbEntity
  8
0
  6
Continuous
 62
     3
100
AcDbLine
 10
12.5000000000004
 20
6.0
 30
0.0
 11
12.5000000000004
 21
5.165063509461
 31
0.0
  0
LINE
  5
BD
330
42
100
AcDbEntity
  8
0
  6
Continuous
 62
     3
100
AcDbLine
 10
12.5000000000004
 20
5.165063509460998
 30
0.0
 11
6.002500000000397
 21
5.165063509460998
 31
0.0
  0
LINE
  5
BE
330
42
100
AcDbEntity
  8
0
  6
Continuous
 62
     3
100
AcDbLine
 10
12.5000000000004
 20
0.834936490538892
 30
0.0
 11
6.002500000000397
 21
0.834936490538892
 31
0.0
  0
LINE
  5
BF
330
42
100
AcDbEntity
  8
0
  6
Continuous
 62
     3
100
AcDbLine
 10
14.2025000000003
 20
0.0
 30
0.0
 11
14.2025000000003
 21
5.220231971247294
 31
0.0
  0
LINE
  5
C0
330
42
100
AcDbEntity
  8
0
  6
Continuous
 62
     3
100
AcDbLine
 10
12.50000000000039
 20
5.999999999999995
 30
0.0
 11
14.2025000000003
 21
5.220231971247286
 31
0.0
  0
LINE
  5
C1
330
42
100
AcDbEntity
  8
0
  6
Continuous
 62
     3
100
AcDbLine
 10
7.002500000000397
 20
5.999999999999998
 30
0.0
 11
6.002500000000397
 21
5.999999999999998
 31
0.0
  0
LINE
  5
C2
330
42
100
AcDbEntity
  8
0
  6
Continuous
 62
     3
100
AcDbLine
 10
5.702500000000298
 20
5.700000000000093
 30
0.0
 11
6.002500000000398
 21
6.000000000000001
 31
0.0
  0
LINE
  5
C3
330
42
100
AcDbEntity
  8
0
  6
Continuous
 62
     3
100
AcDbLine
 10
11.5000000000004
 20
5.999999999999998
 30
0.0
 11
12.5000000000004
 21
5.999999999999998
 31
0.0
  0
LINE
  5
C4
330
42
100
AcDbEntity
  8
0
  6
Continuous
 62
     3
100
AcDbLine
 10
6.002500000000396
 20
0.834936490538894
 30
0.0
 11
6.002500000000396
 21
0.0
 31
0.0
  0
LINE
  5
C5
330
42
100
AcDbEntity
  8
0
  6
Continuous
 62
     3
100
AcDbLine
 10
12.5000000000004
 20
0.834936490538894
 30
0.0
 11
12.5000000000004
 21
0.0
 31
0.0
  0
LINE
  5
C6
330
42
100
AcDbEntity
  8
0
  6
Continuous
 62
     3
100
AcDbLine
 10
5.702500000000299
 20
5.700000000000095
 30
0.0
 11
5.702500000000299
 21
0.0
 31
0.0
  0
LINE
  5
C7
330
42
100
AcDbEntity
  8
0
  6
Continuous
 62
     3
100
AcDbLine
 10
14.6025000000004
 20
0.0
 30
0.0
 11
14.6025000000004
 21
4.799999999999798
 31
0.0
  0
LINE
  5
C8
330
42
100
AcDbEntity
  8
0
  6
Continuous
 62
     3
100
AcDbLine
 10
15.6025000000004
 20
4.599999999999907
 30
0.0
 11
14.60250000000041
 21
4.799999999999811
 31
0.0
  0
LINE
  5
C9
330
42
100
AcDbEntity
  8
0
  6
Continuous
 62
     3
100
AcDbLine
 10
14.6025000000004
 20
4.799999999999796
 30
0.0
 11
14.2025000000003
 21
4.799999999999796
 31
0.0
  0
LINE
  5
CA
330
42
100
AcDbEntity
  8
0
  6
Continuous
 62
     3
100
AcDbLine
 10
15.6025000000004
 20
4.599999999999895
 30
0.0
 11
15.6025000000004
 21
0.0
 31
0.0
  0
LINE
  5
CB
330
42
100
AcDbEntity
  8
0
  6
Continuous
 62
     3
100
AcDbLine
 10
15.6025000000004
 20
0.0
 30
0.0
 11
15.6025000000004
 21
-4.599999999999902
 31
0.0
  0
LINE
  5
CC
330
42
100
AcDbEntity
  8
0
  6
Continuous
 62
     3
100
AcDbLine
 10
5.3937498556624
 20
-5.490000000000007
 30
0.0
 11
5.549999999999897
 21
-5.219367000000114
 31
0.0
  0
LINE
  5
CD
330
42
100
AcDbEntity
  8
0
  6
Continuous
 62
     3
100
AcDbLine
 10
5.674999884529997
 20
-5.219367000000107
 30
0.0
 11
5.549999999999899
 21
-5.219367000000107
 31
0.0
  0
LINE
  5
CE
330
42
100
AcDbEntity
  8
0
  6
Continuous
 62
     3
100
AcDbLine
 10
5.674999884530004
 20
-5.2193670000001
 30
0.0
 11
5.702500000000309
 21
-5.266998564000302
 31
0.0
  0
LINE
  5
CF
330
42
100
AcDbEntity
  8
0
  6
Continuous
 62
     3
100
AcDbLine
 10
14.2025000000003
 20
-4.799999999999907
 30
0.0
 11
14.6025000000004
 21
-4.799999999999907
 31
0.0
  0
LINE
  5
D0
330
42
100
AcDbEntity
  8
0
  6
Continuous
 62
     3
100
AcDbLine
 10
14.6025000000004
 20
-4.799999999999915
 30
0.0
 11
15.60250000000041
 21
-4.599999999999911
 31
0.0
  0
LINE
  5
D1
330
42
100
AcDbEntity
  8
0
  6
Continuous
 62
     3
100
AcDbLine
 10
14.6025000000004
 20
-4.799999999999905
 30
0.0
 11
14.6025000000004
 21
0.0
 31
0.0
  0
LINE
  5
D2
330
42
100
AcDbEntity
  8
0
  6
Continuous
 62
     3
100
AcDbLine
 10
5.702500000000299
 20
0.0
 30
0.0
 11
5.702500000000299
 21
-5.700000000000003
 31
0.0
  0
LINE
  5
D3
330
42
100
AcDbEntity
  8
0
  6
Continuous
 62
     3
100
AcDbLine
 10
5.362499942265394
 20
-5.50804213962271
 30
0.0
 11
5.112499942265287
 21
5.508042139622598
 31
0.0
  0
LINE
  5
D4
330
42
100
AcDbEntity
  8
0
  6
Continuous
 62
     3
100
AcDbLine
 10
5.3937498556624
 20
-5.490000000000007
 30
0.0
 11
5.549999999999897
 21
-5.219367000000114
 31
0.0
  0
LINE
  5
D5
330
42
100
AcDbEntity
  8
0
  6
Continuous
 62
     3
100
AcDbLine
 10
5.174999884530006
 20
-5.219367000000102
 30
0.0
 11
5.331250028867609
 21
-5.489999999999997
 31
0.0
  0
LINE
  5
D6
330
42
100
AcDbEntity
  8
0
  6
Continuous
 62
     3
100
AcDbLine
 10
5.174999884529997
 20
-5.219367000000107
 30
0.0
 11
5.049999999999999
 21
-5.219367000000107
 31
0.0
  0
LINE
  5
D7
330
42
100
AcDbEntity
  8
0
  6
Continuous
 62
     3
100
AcDbLine
 10
4.862499942265394
 20
-5.508042139622707
 30
0.0
 11
4.612499942265288
 21
5.508042139622593
 31
0.0
  0
LINE
  5
D8
330
42
100
AcDbEntity
  8
0
  6
Continuous
 62
     3
100
AcDbLine
 10
4.674999884529997
 20
-5.219367000000107
 30
0.0
 11
4.549999999999999
 21
-5.219367000000107
 31
0.0
  0
LINE
  5
D9
330
42
100
AcDbEntity
  8
0
  6
Continuous
 62
     3
100
AcDbLine
 10
4.674999884529997
 20
-5.219367000000106
 30
0.0
 11
4.831250028867602
 21
-5.490000000000003
 31
0.0
  0
LINE
  5
DA
330
42
100
AcDbEntity
  8
0
  6
Continuous
 62
     3
100
AcDbLine
 10
4.893749855662404
 20
-5.490000000000017
 30
0.0
 11
5.050000000000007
 21
-5.219367000000111
 31
0.0
  0
LINE
  5
DB
330
42
100
AcDbEntity
  8
0
  6
Continuous
 62
     3
100
AcDbLine
 10
2.494732368506101
 20
-5.219367000000107
 30
0.0
 11
3.174999884529997
 21
-5.219367000000107
 31
0.0
  0
LINE
  5
DC
330
42
100
AcDbEntity
  8
0
  6
Continuous
 62
     3
100
AcDbLine
 10
4.362499942265395
 20
-5.508042139622704
 30
0.0
 11
4.112499942265289
 21
5.508042139622597
 31
0.0
  0
LINE
  5
DD
330
42
100
AcDbEntity
  8
0
  6
Continuous
 62
     3
100
AcDbLine
 10
3.862499942265396
 20
-5.508042139622709
 30
0.0
 11
3.612499942265289
 21
5.508042139622592
 31
0.0
  0
LINE
  5
DE
330
42
100
AcDbEntity
  8
0
  6
Continuous
 62
     3
100
AcDbLine
 10
3.362499942265395
 20
-5.508042139622699
 30
0.0
 11
3.112499942265289
 21
5.508042139622602
 31
0.0
  0
LINE
  5
DF
330
42
100
AcDbEntity
  8
0
  6
Continuous
 62
     3
100
AcDbLine
 10
4.174999884529997
 20
-5.219367000000107
 30
0.0
 11
4.049999999999999
 21
-5.219367000000107
 31
0.0
  0
LINE
  5
E0
330
42
100
AcDbEntity
  8
0
  6
Continuous
 62
     3
100
AcDbLine
 10
4.393749855662406
 20
-5.490000000000009
 30
0.0
 11
4.550000000000006
 21
-5.219367000000109
 31
0.0
  0
LINE
  5
E1
330
42
100
AcDbEntity
  8
0
  6
Continuous
 62
     3
100
AcDbLine
 10
4.174999884529994
 20
-5.219367000000108
 30
0.0
 11
4.331250028867599
 21
-5.490000000000006
 31
0.0
  0
LINE
  5
E2
330
42
100
AcDbEntity
  8
0
  6
Continuous
 62
     3
100
AcDbLine
 10
4.174999884529997
 20
-5.219367000000107
 30
0.0
 11
4.049999999999999
 21
-5.219367000000107
 31
0.0
  0
LINE
  5
E3
330
42
100
AcDbEntity
  8
0
  6
Continuous
 62
     3
100
AcDbLine
 10
3.674999884529997
 20
-5.219367000000107
 30
0.0
 11
3.549999999999999
 21
-5.219367000000107
 31
0.0
  0
LINE
  5
E4
330
42
100
AcDbEntity
  8
0
  6
Continuous
 62
     3
100
AcDbLine
 10
3.893749855662403
 20
-5.490000000000006
 30
0.0
 11
4.050000000000002
 21
-5.219367000000105
 31
0.0
  0
LINE
  5
E5
330
42
100
AcDbEntity
  8
0
  6
Continuous
 62
     3
100
AcDbLine
 10
3.67499988453
 20
-5.219367000000104
 30
0.0
 11
3.831250028867605
 21
-5.49
 31
0.0
  0
LINE
  5
E6
330
42
100
AcDbEntity
  8
0
  6
Continuous
 62
     3
100
AcDbLine
 10
3.674999884529997
 20
-5.219367000000107
 30
0.0
 11
3.549999999999999
 21
-5.219367000000107
 31
0.0
  0
LINE
  5
E7
330
42
100
AcDbEntity
  8
0
  6
Continuous
 62
     3
100
AcDbLine
 10
3.674999884529997
 20
-5.219367000000107
 30
0.0
 11
3.549999999999999
 21
-5.219367000000107
 31
0.0
  0
LINE
  5
E8
330
42
100
AcDbEntity
  8
0
  6
Continuous
 62
     3
100
AcDbLine
 10
3.393749855662405
 20
-5.490000000000006
 30
0.0
 11
3.550000000000001
 21
-5.219367000000112
 31
0.0
  0
LINE
  5
E9
330
42
100
AcDbEntity
  8
0
  6
Continuous
 62
     3
100
AcDbLine
 10
3.174999884529992
 20
-5.219367000000108
 30
0.0
 11
3.331250028867595
 21
-5.490000000000001
 31
0.0
  0
LINE
  5
EA
330
42
100
AcDbEntity
  8
0
  6
Continuous
 62
     3
100
AcDbLine
 10
3.081250028867609
 20
5.489999999999903
 30
0.0
 11
2.92499988453
 21
5.219367
 31
0.0
  0
LINE
  5
EB
330
42
100
AcDbEntity
  8
0
  6
Continuous
 62
     3
100
AcDbLine
 10
3.300000000000292
 20
5.219366999999995
 30
0.0
 11
3.143749855662593
 21
5.489999999999895
 31
0.0
  0
LINE
  5
EC
330
42
100
AcDbEntity
  8
0
  6
Continuous
 62
     3
100
AcDbLine
 10
3.300000000000297
 20
5.219366999999997
 30
0.0
 11
3.424999884529997
 21
5.219366999999997
 31
0.0
  0
LINE
  5
ED
330
42
100
AcDbEntity
  8
0
  6
Continuous
 62
     3
100
AcDbLine
 10
3.300000000000297
 20
5.219366999999997
 30
0.0
 11
3.424999884529997
 21
5.219366999999997
 31
0.0
  0
LINE
  5
EE
330
42
100
AcDbEntity
  8
0
  6
Continuous
 62
     3
100
AcDbLine
 10
3.581250028867606
 20
5.489999999999894
 30
0.0
 11
3.424999884530001
 21
5.219366999999997
 31
0.0
  0
LINE
  5
EF
330
42
100
AcDbEntity
  8
0
  6
Continuous
 62
     3
100
AcDbLine
 10
3.800000000000306
 20
5.219366999999998
 30
0.0
 11
3.643749855662607
 21
5.489999999999899
 31
0.0
  0
LINE
  5
F0
330
42
100
AcDbEntity
  8
0
  6
Continuous
 62
     3
100
AcDbLine
 10
3.300000000000297
 20
5.219366999999997
 30
0.0
 11
3.424999884529997
 21
5.219366999999997
 31
0.0
  0
LINE
  5
F1
330
42
100
AcDbEntity
  8
0
  6
Continuous
 62
     3
100
AcDbLine
 10
3.800000000000297
 20
5.219366999999997
 30
0.0
 11
3.924999884529997
 21
5.219366999999997
 31
0.0
  0
LINE
  5
F2
330
42
100
AcDbEntity
  8
0
  6
Continuous
 62
     3
100
AcDbLine
 10
4.081250028867603
 20
5.4899999999999
 30
0.0
 11
3.924999884529998
 21
5.219367000000003
 31
0.0
  0
LINE
  5
F3
330
42
100
AcDbEntity
  8
0
  6
Continuous
 62
     3
100
AcDbLine
 10
4.300000000000304
 20
5.219366999999998
 30
0.0
 11
4.143749855662605
 21
5.489999999999898
 31
0.0
  0
LINE
  5
F4
330
42
100
AcDbEntity
  8
0
  6
Continuous
 62
     3
100
AcDbLine
 10
3.800000000000297
 20
5.219366999999997
 30
0.0
 11
3.924999884529997
 21
5.219366999999997
 31
0.0
  0
LINE
  5
F5
330
42
100
AcDbEntity
  8
0
  6
Continuous
 62
     3
100
AcDbLine
 10
4.581250028867605
 20
5.489999999999895
 30
0.0
 11
4.424999884529996
 21
5.219366999999992
 31
0.0
  0
LINE
  5
F6
330
42
100
AcDbEntity
  8
0
  6
Continuous
 62
     3
100
AcDbLine
 10
4.800000000000299
 20
5.219366999999998
 30
0.0
 11
4.643749855662405
 21
5.489999999999892
 31
0.0
  0
LINE
  5
F7
330
42
100
AcDbEntity
  8
0
  6
Continuous
 62
     3
100
AcDbLine
 10
4.300000000000297
 20
5.219366999999997
 30
0.0
 11
4.424999884529997
 21
5.219366999999997
 31
0.0
  0
LINE
  5
F8
330
42
100
AcDbEntity
  8
0
  6
Continuous
 62
     3
100
AcDbLine
 10
5.081250028867596
 20
5.489999999999897
 30
0.0
 11
4.924999884529991
 21
5.219367000000001
 31
0.0
  0
LINE
  5
F9
330
42
100
AcDbEntity
  8
0
  6
Continuous
 62
     3
100
AcDbLine
 10
5.300000000000292
 20
5.219366999999998
 30
0.0
 11
5.143749855662398
 21
5.489999999999892
 31
0.0
  0
LINE
  5
FA
330
42
100
AcDbEntity
  8
0
  6
Continuous
 62
     3
100
AcDbLine
 10
4.800000000000297
 20
5.219366999999997
 30
0.0
 11
4.924999884529997
 21
5.219366999999997
 31
0.0
  0
LINE
  5
FB
330
42
100
AcDbEntity
  8
0
  6
Continuous
 62
     3
100
AcDbLine
 10
5.581250028867601
 20
5.4899999999999
 30
0.0
 11
5.424999884529996
 21
5.219367000000003
 31
0.0
  0
LINE
  5
FC
330
42
100
AcDbEntity
  8
0
  6
Continuous
 62
     3
100
AcDbLine
 10
5.300000000000297
 20
5.219366999999997
 30
0.0
 11
5.424999884529997
 21
5.219366999999997
 31
0.0
  0
LINE
  5
FD
330
42
100
AcDbEntity
  8
0
  6
Continuous
 62
     3
100
AcDbLine
 10
2.924999884529997
 20
5.219366999999997
 30
0.0
 11
2.499999999999902
 21
5.219366999999997
 31
0.0
  0
LINE
  5
FE
330
42
100
AcDbEntity
  8
0
  6
Continuous
 62
     3
100
AcDbLine
 10
0.0
 20
-2.112270952058005
 30
0.0
 11
0.0
 21
-5.3017424305053
 31
0.0
  0
LINE
  5
FF
330
42
100
AcDbEntity
  8
0
  6
Continuous
 62
     3
100
AcDbLine
 10
0.0
 20
0.0
 30
0.0
 11
0.0
 21
-2.112270952058005
 31
0.0
  0
LINE
  5
100
330
42
100
AcDbEntity
  8
0
  6
Continuous
 62
     3
100
AcDbLine
 10
-4.199999999999999
 20
0.0
 30
0.0
 11
-4.200000000000099
 21
-2.210528521552803
 31
0.0
  0
LINE
  5
101
330
42
100
AcDbEntity
  8
0
  6
Continuous
 62
     3
100
AcDbLine
 10
-0.412001654286004
 20
5.008038699029798
 30
0.0
 11
-0.162499942264904
 21
-5.008042139622699
 31
0.0
  0
LINE
  5
102
330
42
100
AcDbEntity
  8
0
  6
Continuous
 62
     3
100
AcDbLine
 10
-4.099999999999805
 20
4.719366999999996
 30
0.0
 11
-4.099999999999905
 21
-4.719367000000108
 31
0.0
  0
LINE
  5
103
330
42
100
AcDbEntity
  8
0
  6
Continuous
 62
     3
100
AcDbLine
 10
-4.200000000000102
 20
-4.619367000000004
 30
0.0
 11
-4.200000000000102
 21
-2.210528521552803
 31
0.0
  0
LINE
  5
104
330
42
100
AcDbEntity
  8
0
  6
Continuous
 62
     3
100
AcDbLine
 10
-3.849999999999897
 20
-4.719367000000101
 30
0.0
 11
-3.693749855662198
 21
-4.990000000000002
 31
0.0
  0
LINE
  5
105
330
42
100
AcDbEntity
  8
0
  6
Continuous
 62
     3
100
AcDbLine
 10
-3.474999884529705
 20
-4.71936700000011
 30
0.0
 11
-3.631250028867499
 21
-4.990000000000004
 31
0.0
  0
LINE
  5
106
330
42
100
AcDbEntity
  8
0
  6
Continuous
 62
     3
100
AcDbLine
 10
-3.3499999999999
 20
-4.719367000000107
 30
0.0
 11
-3.412499942264899
 21
-4.719367000000107
 31
0.0
  0
LINE
  5
107
330
42
100
AcDbEntity
  8
0
  6
Continuous
 62
     3
100
AcDbLine
 10
-3.349999999999899
 20
-4.719367000000107
 30
0.0
 11
-3.1937498556622
 21
-4.990000000000007
 31
0.0
  0
LINE
  5
108
330
42
100
AcDbEntity
  8
0
  6
Continuous
 62
     3
100
AcDbLine
 10
-2.974999884529697
 20
-4.719367000000105
 30
0.0
 11
-3.131250028867496
 21
-4.990000000000005
 31
0.0
  0
LINE
  5
109
330
42
100
AcDbEntity
  8
0
  6
Continuous
 62
     3
100
AcDbLine
 10
-2.8499999999999
 20
-4.719367000000107
 30
0.0
 11
-2.9749998845297
 21
-4.719367000000107
 31
0.0
  0
LINE
  5
10A
330
42
100
AcDbEntity
  8
0
  6
Continuous
 62
     3
100
AcDbLine
 10
-2.849999999999899
 20
-4.719367000000103
 30
0.0
 11
-2.6937498556622
 21
-4.990000000000002
 31
0.0
  0
LINE
  5
10B
330
42
100
AcDbEntity
  8
0
  6
Continuous
 62
     3
100
AcDbLine
 10
-2.4749998845297
 20
-4.719367000000103
 30
0.0
 11
-2.631250028867498
 21
-4.990000000000003
 31
0.0
  0
LINE
  5
10C
330
42
100
AcDbEntity
  8
0
  6
Continuous
 62
     3
100
AcDbLine
 10
-2.3499999999999
 20
-4.719367000000107
 30
0.0
 11
-2.4749998845297
 21
-4.719367000000107
 31
0.0
  0
LINE
  5
10D
330
42
100
AcDbEntity
  8
0
  6
Continuous
 62
     3
100
AcDbLine
 10
-2.349999999999901
 20
-4.719367000000108
 30
0.0
 11
-2.193749855662202
 21
-4.990000000000008
 31
0.0
  0
LINE
  5
10E
330
42
100
AcDbEntity
  8
0
  6
Continuous
 62
     3
100
AcDbLine
 10
-1.974999884529701
 20
-4.7193670000001
 30
0.0
 11
-2.1312500288675
 21
-4.989999999999999
 31
0.0
  0
LINE
  5
10F
330
42
100
AcDbEntity
  8
0
  6
Continuous
 62
     3
100
AcDbLine
 10
-1.8499999999999
 20
-4.719367000000107
 30
0.0
 11
-1.9749998845297
 21
-4.719367000000107
 31
0.0
  0
LINE
  5
110
330
42
100
AcDbEntity
  8
0
  6
Continuous
 62
     3
100
AcDbLine
 10
-1.849999999999901
 20
-4.71936700000011
 30
0.0
 11
-1.693749855662202
 21
-4.99000000000001
 31
0.0
  0
LINE
  5
111
330
42
100
AcDbEntity
  8
0
  6
Continuous
 62
     3
100
AcDbLine
 10
-1.474999884529697
 20
-4.719367000000108
 30
0.0
 11
-1.6312500288675
 21
-4.990000000000014
 31
0.0
  0
LINE
  5
112
330
42
100
AcDbEntity
  8
0
  6
Continuous
 62
     3
100
AcDbLine
 10
-1.3499999999999
 20
-4.719367000000107
 30
0.0
 11
-1.4749998845297
 21
-4.719367000000107
 31
0.0
  0
LINE
  5
113
330
42
100
AcDbEntity
  8
0
  6
Continuous
 62
     3
100
AcDbLine
 10
-1.349999999999904
 20
-4.719367000000108
 30
0.0
 11
-1.193749855662205
 21
-4.990000000000007
 31
0.0
  0
LINE
  5
114
330
42
100
AcDbEntity
  8
0
  6
Continuous
 62
     3
100
AcDbLine
 10
-0.974999884529699
 20
-4.719367000000106
 30
0.0
 11
-1.131250028867501
 21
-4.990000000000012
 31
0.0
  0
LINE
  5
115
330
42
100
AcDbEntity
  8
0
  6
Continuous
 62
     3
100
AcDbLine
 10
-0.8499999999999
 20
-4.719367000000107
 30
0.0
 11
-0.9749998845297
 21
-4.719367000000107
 31
0.0
  0
LINE
  5
116
330
42
100
AcDbEntity
  8
0
  6
Continuous
 62
     3
100
AcDbLine
 10
-0.849999999999902
 20
-4.719367000000113
 30
0.0
 11
-0.693749855662205
 21
-4.99000000000001
 31
0.0
  0
LINE
  5
117
330
42
100
AcDbEntity
  8
0
  6
Continuous
 62
     3
100
AcDbLine
 10
-0.474999884529699
 20
-4.719367000000105
 30
0.0
 11
-0.631250028867497
 21
-4.990000000000004
 31
0.0
  0
LINE
  5
118
330
42
100
AcDbEntity
  8
0
  6
Continuous
 62
     3
100
AcDbLine
 10
-0.3499999999999
 20
-4.719367000000107
 30
0.0
 11
-0.4749998845297
 21
-4.719367000000107
 31
0.0
  0
LINE
  5
119
330
42
100
AcDbEntity
  8
0
  6
Continuous
 62
     3
100
AcDbLine
 10
-0.349999999999904
 20
-4.719367000000111
 30
0.0
 11
-0.193749855662207
 21
-4.990000000000008
 31
0.0
  0
LINE
  5
11A
330
42
100
AcDbEntity
  8
0
  6
Continuous
 62
     3
100
AcDbLine
 10
-4.0999999999999
 20
-4.719367000000107
 30
0.0
 11
-3.8499999999999
 21
-4.719367000000107
 31
0.0
  0
LINE
  5
11B
330
42
100
AcDbEntity
  8
0
  6
Continuous
 62
     3
100
AcDbLine
 10
-3.412499942264899
 20
-4.719367000000107
 30
0.0
 11
-3.4749998845297
 21
-4.719367000000107
 31
0.0
  0
LINE
  5
11C
330
42
100
AcDbEntity
  8
0
  6
Continuous
 62
     3
100
AcDbLine
 10
-0.412499942264905
 20
-4.719367000000103
 30
0.0
 11
-0.661971330296108
 21
4.719366999999997
 31
0.0
  0
LINE
  5
11D
330
42
100
AcDbEntity
  8
0
  6
Continuous
 62
     3
100
AcDbLine
 10
-0.000000000000407
 20
-4.762668440000811
 30
0.0
 11
-0.131250028867499
 21
-4.990000000000008
 31
0.0
  0
LINE
  5
11E
330
42
100
AcDbEntity
  8
0
  6
Continuous
 62
     3
100
AcDbLine
 10
-0.2249998845296
 20
4.719366999999997
 30
0.0
 11
0.000000000000002
 21
4.719366999999997
 31
0.0
  0
LINE
  5
11F
330
42
100
AcDbEntity
  8
0
  6
Continuous
 62
     3
100
AcDbLine
 10
-3.943749855662006
 20
4.989999999999895
 30
0.0
 11
-4.09999999999981
 21
4.719366999999997
 31
0.0
  0
LINE
  5
120
330
42
100
AcDbEntity
  8
0
  6
Continuous
 62
     3
100
AcDbLine
 10
-3.881250028867392
 20
4.989999999999899
 30
0.0
 11
-3.724999884529594
 21
4.719366999999998
 31
0.0
  0
LINE
  5
121
330
42
100
AcDbEntity
  8
0
  6
Continuous
 62
     3
100
AcDbLine
 10
-3.443749855662005
 20
4.989999999999894
 30
0.0
 11
-3.599999999999805
 21
4.719367000000003
 31
0.0
  0
LINE
  5
122
330
42
100
AcDbEntity
  8
0
  6
Continuous
 62
     3
100
AcDbLine
 10
-3.381250028867388
 20
4.9899999999999
 30
0.0
 11
-3.22499988452959
 21
4.719366999999999
 31
0.0
  0
LINE
  5
123
330
42
100
AcDbEntity
  8
0
  6
Continuous
 62
     3
100
AcDbLine
 10
-3.2249998845296
 20
4.719366999999997
 30
0.0
 11
-3.099999999999801
 21
4.719366999999997
 31
0.0
  0
LINE
  5
124
330
42
100
AcDbEntity
  8
0
  6
Continuous
 62
     3
100
AcDbLine
 10
-2.943749855661997
 20
4.989999999999897
 30
0.0
 11
-3.099999999999801
 21
4.719367
 31
0.0
  0
LINE
  5
125
330
42
100
AcDbEntity
  8
0
  6
Continuous
 62
     3
100
AcDbLine
 10
-2.881250028867391
 20
4.989999999999897
 30
0.0
 11
-2.724999884529592
 21
4.719366999999997
 31
0.0
  0
LINE
  5
126
330
42
100
AcDbEntity
  8
0
  6
Continuous
 62
     3
100
AcDbLine
 10
-2.7249998845296
 20
4.719366999999997
 30
0.0
 11
-2.599999999999801
 21
4.719366999999997
 31
0.0
  0
LINE
  5
127
330
42
100
AcDbEntity
  8
0
  6
Continuous
 62
     3
100
AcDbLine
 10
-2.443749855662002
 20
4.989999999999884
 30
0.0
 11
-2.599999999999802
 21
4.719366999999993
 31
0.0
  0
LINE
  5
128
330
42
100
AcDbEntity
  8
0
  6
Continuous
 62
     3
100
AcDbLine
 10
-2.381250028867393
 20
4.989999999999897
 30
0.0
 11
-2.224999884529595
 21
4.719366999999997
 31
0.0
  0
LINE
  5
129
330
42
100
AcDbEntity
  8
0
  6
Continuous
 62
     3
100
AcDbLine
 10
-2.2249998845296
 20
4.719366999999997
 30
0.0
 11
-2.099999999999801
 21
4.719366999999997
 31
0.0
  0
LINE
  5
12A
330
42
100
AcDbEntity
  8
0
  6
Continuous
 62
     3
100
AcDbLine
 10
-1.943749855661996
 20
4.989999999999897
 30
0.0
 11
-2.0999999999998
 21
4.719367
 31
0.0
  0
LINE
  5
12B
330
42
100
AcDbEntity
  8
0
  6
Continuous
 62
     3
100
AcDbLine
 10
-1.881250028867389
 20
4.989999999999901
 30
0.0
 11
-1.724999884529591
 21
4.719367000000001
 31
0.0
  0
LINE
  5
12C
330
42
100
AcDbEntity
  8
0
  6
Continuous
 62
     3
100
AcDbLine
 10
-1.7249998845296
 20
4.719366999999997
 30
0.0
 11
-1.599999999999801
 21
4.719366999999997
 31
0.0
  0
LINE
  5
12D
330
42
100
AcDbEntity
  8
0
  6
Continuous
 62
     3
100
AcDbLine
 10
-1.443749855662001
 20
4.989999999999899
 30
0.0
 11
-1.599999999999802
 21
4.719367000000007
 31
0.0
  0
LINE
  5
12E
330
42
100
AcDbEntity
  8
0
  6
Continuous
 62
     3
100
AcDbLine
 10
-1.381250028867392
 20
4.989999999999901
 30
0.0
 11
-1.224999884529593
 21
4.719367000000001
 31
0.0
  0
LINE
  5
12F
330
42
100
AcDbEntity
  8
0
  6
Continuous
 62
     3
100
AcDbLine
 10
-1.2249998845296
 20
4.719366999999997
 30
0.0
 11
-1.099999999999801
 21
4.719366999999997
 31
0.0
  0
LINE
  5
130
330
42
100
AcDbEntity
  8
0
  6
Continuous
 62
     3
100
AcDbLine
 10
-0.943749855662001
 20
4.989999999999898
 30
0.0
 11
-1.099999999999804
 21
4.719367000000001
 31
0.0
  0
LINE
  5
131
330
42
100
AcDbEntity
  8
0
  6
Continuous
 62
     3
100
AcDbLine
 10
-0.881250028867394
 20
4.989999999999898
 30
0.0
 11
-0.724999884529598
 21
4.719367000000002
 31
0.0
  0
LINE
  5
132
330
42
100
AcDbEntity
  8
0
  6
Continuous
 62
     3
100
AcDbLine
 10
-0.7249998845296
 20
4.719366999999997
 30
0.0
 11
-0.599999999999801
 21
4.719366999999997
 31
0.0
  0
LINE
  5
133
330
42
100
AcDbEntity
  8
0
  6
Continuous
 62
     3
100
AcDbLine
 10
-0.443749855662002
 20
4.989999999999899
 30
0.0
 11
-0.599999999999802
 21
4.719367000000009
 31
0.0
  0
LINE
  5
134
330
42
100
AcDbEntity
  8
0
  6
Continuous
 62
     3
100
AcDbLine
 10
-0.381250028867397
 20
4.989999999999895
 30
0.0
 11
-0.224999884529599
 21
4.719366999999995
 31
0.0
  0
LINE
  5
135
330
42
100
AcDbEntity
  8
0
  6
Continuous
 62
     3
100
AcDbLine
 10
-3.599999999999801
 20
4.719366999999997
 30
0.0
 11
-3.7249998845296
 21
4.719366999999997
 31
0.0
  0
LINE
  5
136
330
42
100
AcDbEntity
  8
0
  6
Continuous
 62
     3
100
AcDbLine
 10
12.5000000000004
 20
0.0
 30
0.0
 11
12.5000000000004
 21
-0.834936490538901
 31
0.0
  0
LINE
  5
137
330
42
100
AcDbEntity
  8
0
  6
Continuous
 62
     3
100
AcDbLine
 10
6.002500000000396
 20
0.0
 30
0.0
 11
6.002500000000396
 21
-0.834936490538901
 31
0.0
  0
LINE
  5
138
330
42
100
AcDbEntity
  8
0
  6
Continuous
 62
     3
100
AcDbLine
 10
12.5000000000004
 20
-6.000000000000002
 30
0.0
 11
11.5000000000004
 21
-6.000000000000002
 31
0.0
  0
LINE
  5
139
330
42
100
AcDbEntity
  8
0
  6
Continuous
 62
     3
100
AcDbLine
 10
6.00250000000039
 20
-6.000000000000001
 30
0.0
 11
5.702500000000294
 21
-5.700000000000004
 31
0.0
  0
LINE
  5
13A
330
42
100
AcDbEntity
  8
0
  6
Continuous
 62
     3
100
AcDbLine
 10
6.002500000000397
 20
-6.000000000000002
 30
0.0
 11
7.002500000000397
 21
-6.000000000000002
 31
0.0
  0
LINE
  5
13B
330
42
100
AcDbEntity
  8
0
  6
Continuous
 62
     3
100
AcDbLine
 10
14.2025000000003
 20
-5.220231971247205
 30
0.0
 11
12.5000000000004
 21
-6.000000000000005
 31
0.0
  0
LINE
  5
13C
330
42
100
AcDbEntity
  8
0
  6
Continuous
 62
     3
100
AcDbLine
 10
14.2025000000003
 20
-5.220231971247202
 30
0.0
 11
14.2025000000003
 21
0.0
 31
0.0
  0
LINE
  5
13D
330
42
100
AcDbEntity
  8
0
  6
Continuous
 62
     3
100
AcDbLine
 10
6.002500000000397
 20
-0.834936490538903
 30
0.0
 11
12.5000000000004
 21
-0.834936490538903
 31
0.0
  0
LINE
  5
13E
330
42
100
AcDbEntity
  8
0
  6
Continuous
 62
     3
100
AcDbLine
 10
6.002500000000397
 20
-5.165063509461001
 30
0.0
 11
12.5000000000004
 21
-5.165063509461001
 31
0.0
  0
LINE
  5
13F
330
42
100
AcDbEntity
  8
0
  6
Continuous
 62
     3
100
AcDbLine
 10
12.5000000000004
 20
-5.165063509461
 30
0.0
 11
12.5000000000004
 21
-6.0
 31
0.0
  0
LINE
  5
140
330
42
100
AcDbEntity
  8
0
  6
Continuous
 62
     3
100
AcDbLine
 10
12.5000000000004
 20
-6.000000000000002
 30
0.0
 11
6.002500000000397
 21
-6.000000000000002
 31
0.0
  0
LINE
  5
141
330
42
100
AcDbEntity
  8
0
  6
Continuous
 62
     3
100
AcDbLine
 10
6.002500000000396
 20
-5.165063509461
 30
0.0
 11
6.002500000000396
 21
-6.0
 31
0.0
  0
LINE
  5
142
330
42
100
AcDbEntity
  8
0
  6
Continuous
 62
     3
100
AcDbLine
 10
0.299999999999898
 20
-6.000000000000902
 30
0.0
 11
0.299999999999898
 21
-5.165063509461106
 31
0.0
  0
LINE
  5
143
330
42
100
AcDbEntity
  8
0
  6
Continuous
 62
     3
100
AcDbLine
 10
0.299999999999899
 20
-5.165063509461108
 30
0.0
 11
1.799999999999899
 21
-5.165063509461108
 31
0.0
  0
LINE
  5
144
330
42
100
AcDbEntity
  8
0
  6
Continuous
 62
     3
100
AcDbLine
 10
1.799999999999898
 20
-5.165063509461106
 30
0.0
 11
1.799999999999898
 21
-6.0
 31
0.0
  0
LINE
  5
145
330
42
100
AcDbEntity
  8
0
  6
Continuous
 62
     3
100
AcDbLine
 10
2.299999999999896
 20
-5.290686516703103
 30
0.0
 11
2.299999999999996
 21
0.000000000000002
 31
0.0
  0
LINE
  5
146
330
42
100
AcDbEntity
  8
0
  6
Continuous
 62
     3
100
AcDbLine
 10
1.799999999999996
 20
-0.834936490538902
 30
0.0
 11
1.799999999999897
 21
-0.000000000000001
 31
0.0
  0
LINE
  5
147
330
42
100
AcDbEntity
  8
0
  6
Continuous
 62
     3
100
AcDbLine
 10
0.299999999999898
 20
-0.834936490538105
 30
0.0
 11
0.299999999999898
 21
0.0
 31
0.0
  0
LINE
  5
148
330
42
100
AcDbEntity
  8
0
  6
Continuous
 62
     3
100
AcDbLine
 10
0.299999999999897
 20
-0.83493649053811
 30
0.0
 11
1.799999999999996
 21
-0.834936490538906
 31
0.0
  0
LINE
  5
149
330
42
100
AcDbEntity
  8
0
  6
Continuous
 62
     3
100
AcDbLine
 10
0.299999999999898
 20
-5.165063509461106
 30
0.0
 11
0.299999999999898
 21
-0.834936490538105
 31
0.0
  0
LINE
  5
14A
330
42
100
AcDbEntity
  8
0
  6
Continuous
 62
     3
100
AcDbLine
 10
0.299999999999899
 20
-6.000000000000904
 30
0.0
 11
1.799999999999899
 21
-6.000000000000002
 31
0.0
  0
LINE
  5
14B
330
42
100
AcDbEntity
  8
0
  6
Continuous
 62
     3
100
AcDbLine
 10
2.300000000000001
 20
-5.500000000000806
 30
0.0
 11
1.799999999999907
 21
-5.999999999999996
 31
0.0
  0
LINE
  5
14C
330
42
100
AcDbEntity
  8
0
  6
Continuous
 62
     3
100
AcDbLine
 10
2.299999999999897
 20
-5.290000000001099
 30
0.0
 11
2.299999999999997
 21
-5.500000000000801
 31
0.0
  0
ARC
  5
14D
330
42
100
AcDbEntity
  8
0
  6
Continuous
 62
     3
100
AcDbCircle
 10
-4.099999999999902
 20
-4.619367000000006
 30
0.0
 40
0.1000000000002004
100
AcDbArc
 50
180.0
 51
270.0
  0
ARC
  5
14E
330
42
100
AcDbEntity
  8
0
  6
Continuous
 62
     3
100
AcDbCircle
 10
-4.099999999999802
 20
4.619366999999995
 30
0.0
 40
0.1000000000000014
100
AcDbArc
 50
90.0
 51
180.0
  0
ARC
  5
14F
330
42
100
AcDbEntity
  8
0
  6
Continuous
 62
     3
100
AcDbCircle
 10
2.499999999999901
 20
-5.419367000000301
 30
0.0
 40
0.2000000000001947
100
AcDbArc
 50
90.0
 51
180.0
  0
ARC
  5
150
330
42
100
AcDbEntity
  8
0
  6
Continuous
 62
     3
100
AcDbCircle
 10
2.499999999999901
 20
5.419367000000298
 30
0.0
 40
0.2000000000000028
100
AcDbArc
 50
180.0
 51
270.0
  0
ARC
  5
151
330
42
100
AcDbEntity
  8
0
  6
Continuous
 62
     3
100
AcDbCircle
 10
-2.637499999990105
 20
2.999999999999096
 30
0.0
 40
4.937499999990713
100
AcDbArc
 50
333.9921761143132
 51
26.00782388570594
  0
ARC
  5
152
330
42
100
AcDbEntity
  8
0
  6
Continuous
 62
     3
100
AcDbCircle
 10
0.5
 20
5.301742430505298
 30
0.0
 40
0.5000000000000561
100
AcDbArc
 50
113.5781784782118
 51
180.0
  0
ARC
  5
153
330
42
100
AcDbEntity
  8
0
  6
Continuous
 62
     3
100
AcDbCircle
 10
8.062500000000199
 20
2.999999999999998
 30
0.0
 40
4.937500000000183
100
AcDbArc
 50
333.9921761143553
 51
26.0078238856436
  0
ARC
  5
154
330
42
100
AcDbEntity
  8
0
  6
Continuous
 62
     3
100
AcDbCircle
 10
13.6649999999997
 20
2.999999999999998
 30
0.0
 40
7.962499999999305
100
AcDbArc
 50
164.2221938995037
 51
195.7778061004971
  0
ARC
  5
155
330
42
100
AcDbEntity
  8
0
  6
Continuous
 62
     3
100
AcDbCircle
 10
5.362499942264996
 20
-5.471957841509104
 30
0.0
 40
0.03608429811366
100
AcDbArc
 50
210.0000172970828
 51
329.9999827029229
  0
ARC
  5
156
330
42
100
AcDbEntity
  8
0
  6
Continuous
 62
     3
100
AcDbCircle
 10
4.862499942264996
 20
-5.471957841509104
 30
0.0
 40
0.03608429811366
100
AcDbArc
 50
210.0000172970828
 51
329.9999827029229
  0
ARC
  5
157
330
42
100
AcDbEntity
  8
0
  6
Continuous
 62
     3
100
AcDbCircle
 10
4.362499942264996
 20
-5.471957841509104
 30
0.0
 40
0.03608429811366
100
AcDbArc
 50
210.0000172970828
 51
329.9999827029229
  0
ARC
  5
158
330
42
100
AcDbEntity
  8
0
  6
Continuous
 62
     3
100
AcDbCircle
 10
3.862499942264996
 20
-5.471957841509104
 30
0.0
 40
0.03608429811366
100
AcDbArc
 50
210.0000172970828
 51
329.9999827029229
  0
ARC
  5
159
330
42
100
AcDbEntity
  8
0
  6
Continuous
 62
     3
100
AcDbCircle
 10
3.362499942264996
 20
-5.471957841509104
 30
0.0
 40
0.03608429811366
100
AcDbArc
 50
210.0000172970828
 51
329.9999827029229
  0
ARC
  5
15A
330
42
100
AcDbEntity
  8
0
  6
Continuous
 62
     3
100
AcDbCircle
 10
3.112499942264996
 20
5.471957841508994
 30
0.0
 40
0.0360842981138385
100
AcDbArc
 50
30.00001729691918
 51
149.9999827029172
  0
ARC
  5
15B
330
42
100
AcDbEntity
  8
0
  6
Continuous
 62
     3
100
AcDbCircle
 10
3.612499942264996
 20
5.471957841508994
 30
0.0
 40
0.0360842981138385
100
AcDbArc
 50
30.00001729691918
 51
149.9999827029172
  0
ARC
  5
15C
330
42
100
AcDbEntity
  8
0
  6
Continuous
 62
     3
100
AcDbCircle
 10
4.112499942264996
 20
5.471957841508994
 30
0.0
 40
0.0360842981138385
100
AcDbArc
 50
30.00001729691918
 51
149.9999827029172
  0
ARC
  5
15D
330
42
100
AcDbEntity
  8
0
  6
Continuous
 62
     3
100
AcDbCircle
 10
4.612499942264996
 20
5.471957841508994
 30
0.0
 40
0.0360842981136662
100
AcDbArc
 50
30.00001729707713
 51
149.9999827029172
  0
ARC
  5
15E
330
42
100
AcDbEntity
  8
0
  6
Continuous
 62
     3
100
AcDbCircle
 10
5.112499942264996
 20
5.471957841508994
 30
0.0
 40
0.0360842981136662
100
AcDbArc
 50
30.00001729707713
 51
149.9999827029172
  0
ARC
  5
15F
330
42
100
AcDbEntity
  8
0
  6
Continuous
 62
     3
100
AcDbCircle
 10
5.612499942264996
 20
5.471957841508994
 30
0.0
 40
0.0360842981136662
100
AcDbArc
 50
30.00001729707713
 51
149.9999827029172
  0
ARC
  5
160
330
42
100
AcDbEntity
  8
0
  6
Continuous
 62
     3
100
AcDbCircle
 10
0.5
 20
-5.301742430505302
 30
0.0
 40
0.5
100
AcDbArc
 50
180.0
 51
246.4218215217882
  0
ARC
  5
161
330
42
100
AcDbEntity
  8
0
  6
Continuous
 62
     3
100
AcDbCircle
 10
-3.662499942264901
 20
-4.971957841509104
 30
0.0
 40
0.0360842981136003
100
AcDbArc
 50
270.0
 51
329.9999827029229
  0
ARC
  5
162
330
42
100
AcDbEntity
  8
0
  6
Continuous
 62
     3
100
AcDbCircle
 10
-3.162499942264901
 20
-4.971957841509104
 30
0.0
 40
0.03608429811358
100
AcDbArc
 50
210.0000172971561
 51
329.9999827029229
  0
ARC
  5
163
330
42
100
AcDbEntity
  8
0
  6
Continuous
 62
     3
100
AcDbCircle
 10
-2.662499942264901
 20
-4.971957841509104
 30
0.0
 40
0.03608429811358
100
AcDbArc
 50
210.0000172971561
 51
329.9999827029229
  0
ARC
  5
164
330
42
100
AcDbEntity
  8
0
  6
Continuous
 62
     3
100
AcDbCircle
 10
-2.162499942264901
 20
-4.971957841509104
 30
0.0
 40
0.03608429811358
100
AcDbArc
 50
210.0000172971561
 51
329.9999827029229
  0
ARC
  5
165
330
42
100
AcDbEntity
  8
0
  6
Continuous
 62
     3
100
AcDbCircle
 10
-1.662499942264901
 20
-4.971957841509104
 30
0.0
 40
0.03608429811358
100
AcDbArc
 50
210.0000172971561
 51
329.9999827029229
  0
ARC
  5
166
330
42
100
AcDbEntity
  8
0
  6
Continuous
 62
     3
100
AcDbCircle
 10
-1.162499942264901
 20
-4.971957841509104
 30
0.0
 40
0.03608429811358
100
AcDbArc
 50
210.0000172971561
 51
329.9999827029229
  0
ARC
  5
167
330
42
100
AcDbEntity
  8
0
  6
Continuous
 62
     3
100
AcDbCircle
 10
-0.662499942264901
 20
-4.971957841509104
 30
0.0
 40
0.03608429811358
100
AcDbArc
 50
210.0000172971561
 51
329.9999827029229
  0
ARC
  5
168
330
42
100
AcDbEntity
  8
0
  6
Continuous
 62
     3
100
AcDbCircle
 10
-0.162499942264901
 20
-4.971957841509104
 30
0.0
 40
0.03608429811358
100
AcDbArc
 50
210.0000172971561
 51
329.9999827029229
  0
ARC
  5
169
330
42
100
AcDbEntity
  8
0
  6
Continuous
 62
     3
100
AcDbCircle
 10
-3.662499942264901
 20
-4.971957841509104
 30
0.0
 40
0.03608429811358
100
AcDbArc
 50
210.0000172971561
 51
270.0
  0
ARC
  5
16A
330
42
100
AcDbEntity
  8
0
  6
Continuous
 62
     3
100
AcDbCircle
 10
-3.412499942264802
 20
4.971957841508994
 30
0.0
 40
0.0360842981136662
100
AcDbArc
 50
30.00001729707713
 51
149.9999827027593
  0
ARC
  5
16B
330
42
100
AcDbEntity
  8
0
  6
Continuous
 62
     3
100
AcDbCircle
 10
-2.912499942264802
 20
4.971957841508994
 30
0.0
 40
0.0360842981136662
100
AcDbArc
 50
30.00001729707713
 51
149.9999827027593
  0
ARC
  5
16C
330
42
100
AcDbEntity
  8
0
  6
Continuous
 62
     3
100
AcDbCircle
 10
-2.412499942264802
 20
4.971957841508994
 30
0.0
 40
0.0360842981136662
100
AcDbArc
 50
30.00001729707713
 51
149.9999827027593
  0
ARC
  5
16D
330
42
100
AcDbEntity
  8
0
  6
Continuous
 62
     3
100
AcDbCircle
 10
-1.912499942264802
 20
4.971957841508994
 30
0.0
 40
0.0360842981136662
100
AcDbArc
 50
30.00001729707713
 51
149.9999827027593
  0
ARC
  5
16E
330
42
100
AcDbEntity
  8
0
  6
Continuous
 62
     3
100
AcDbCircle
 10
-1.412499942264802
 20
4.971957841508994
 30
0.0
 40
0.0360842981136662
100
AcDbArc
 50
30.00001729707713
 51
149.9999827027593
  0
ARC
  5
16F
330
42
100
AcDbEntity
  8
0
  6
Continuous
 62
     3
100
AcDbCircle
 10
-0.912499942264802
 20
4.971957841508994
 30
0.0
 40
0.0360842981136662
100
AcDbArc
 50
30.00001729707713
 51
149.9999827027593
  0
ARC
  5
170
330
42
100
AcDbEntity
  8
0
  6
Continuous
 62
     3
100
AcDbCircle
 10
-0.412499942264802
 20
4.971957841508994
 30
0.0
 40
0.0360842981136662
100
AcDbArc
 50
30.00001729707713
 51
149.9999827027593
  0
ARC
  5
171
330
42
100
AcDbEntity
  8
0
  6
Continuous
 62
     3
100
AcDbCircle
 10
-3.912499942264901
 20
4.971957841508994
 30
0.0
 40
0.0360842981137523
100
AcDbArc
 50
30.00001729699816
 51
149.9999827026803
  0
ARC
  5
172
330
42
100
AcDbEntity
  8
0
  6
Continuous
 62
     3
100
AcDbCircle
 10
13.6649999999997
 20
-3.000000000000002
 30
0.0
 40
7.962499999999332
100
AcDbArc
 50
164.222193899503
 51
195.7778061004963
  0
ARC
  5
173
330
42
100
AcDbEntity
  8
0
  6
Continuous
 62
     3
100
AcDbCircle
 10
8.062500000000199
 20
-3.000000000000002
 30
0.0
 40
4.937500000000137
100
AcDbArc
 50
333.9921761143564
 51
26.00782388564467
  0
ARC
  5
174
330
42
100
AcDbEntity
  8
0
  6
Continuous
 62
     3
100
AcDbCircle
 10
-2.637499999990105
 20
-2.999999999999106
 30
0.0
 40
4.937499999991412
100
AcDbArc
 50
333.9921761142941
 51
26.0078238856867
  0
MTEXT
  5
175
330
42
100
AcDbEntity
  8
0
 62
     4
100
AcDbMText
 10
6.624739578862985
 20
-4.616555065484274
 30
0.0
 40
0.300000011920929
 41
0.0
 71
     7
 72
     1
  1
{\W0.833333;OA-WS10M-65/80}
 73
     1
 44
1.0
  0
ENDBLK
  5
44
330
42
100
AcDbEntity
  8
0
100
AcDbBlockEnd
  0
BLOCK
  5
46
330
45
100
AcDbEntity
  8
0
100
AcDbBlockBegin
  2
DTL0003
 70
     0
 10
0.0
 20
0.0
 30
0.0
  3
DTL0003
  1

  0
POINT
  5
198
330
45
100
AcDbEntity
  8
0
 62
     4
100
AcDbPoint
 10
0.0
 20
0.0
 30
0.0
  0
POINT
  5
199
330
45
100
AcDbEntity
  8
0
 62
     4
100
AcDbPoint
 10
5.0
 20
0.0
 30
0.0
  0
LINE
  5
19A
330
45
100
AcDbEntity
  8
0
  6
Continuous
 62
     4
100
AcDbLine
 10
-9.0
 20
1.3
 30
0.0
 11
-9.0
 21
-1.3
 31
0.0
  0
LINE
  5
19B
330
45
100
AcDbEntity
  8
0
  6
Continuous
 62
     4
100
AcDbLine
 10
-9.0
 20
-1.3
 30
0.0
 11
-4.828043081829325
 21
-1.3
 31
0.0
  0
LINE
  5
19C
330
45
100
AcDbEntity
  8
0
  6
Continuous
 62
     4
100
AcDbLine
 10
-9.0
 20
1.3
 30
0.0
 11
-4.828043081829325
 21
1.3
 31
0.0
  0
CIRCLE
  5
19D
330
45
100
AcDbEntity
  8
0
  6
Continuous
 62
     4
100
AcDbCircle
 10
0.0
 20
0.0
 30
0.0
 40
2.5
  0
CIRCLE
  5
19E
330
45
100
AcDbEntity
  8
0
  6
Continuous
 62
     4
100
AcDbCircle
 10
0.0
 20
0.0
 30
0.0
 40
5.0
  0
CIRCLE
  5
19F
330
45
100
AcDbEntity
  8
0
  6
Continuous
 62
     4
100
AcDbCircle
 10
0.0
 20
0.0
 30
0.0
 40
0.25
  0
MTEXT
  5
1A0
330
45
100
AcDbEntity
  8
0
 62
     4
100
AcDbMText
 10
-2.393541801003423
 20
-3.951756910908225
 30
0.0
 40
0.300000011920929
 41
0.0
 71
     7
 72
     1
  1
{\W0.833333;#57573(エド：\\10750）}
 73
     1
 44
1.0
  0
ENDBLK
  5
47
330
45
100
AcDbEntity
  8
0
100
AcDbBlockEnd
  0
BLOCK
  5
49
330
48
100
AcDbEntity
  8
0
100
AcDbBlockBegin
  2
DTL0004
 70
     0
 10
0.0
 20
0.0
 30
0.0
  3
DTL0004
  1

  0
POINT
  5
1A1
330
48
100
AcDbEntity
  8
0
 62
    51
100
AcDbPoint
 10
0.0
 20
0.0
 30
0.0
  0
LINE
  5
1A2
330
48
100
AcDbEntity
  8
0
  6
CENTER
 62
    31
100
AcDbLine
 10
9.5
 20
-4.946372238919537
 30
0.0
 11
9.5
 21
-9.452850739773325
 31
0.0
  0
LINE
  5
1A3
330
48
100
AcDbEntity
  8
0
  6
Continuous
 62
    31
100
AcDbLine
 10
3.500000000004377
 20
1.0
 30
0.0
 11
3.500000000004377
 21
0.0
 31
0.0
  0
LINE
  5
1A4
330
48
100
AcDbEntity
  8
0
  6
Continuous
 62
    31
100
AcDbLine
 10
-3.500000000004377
 20
1.0
 30
0.0
 11
-3.500000000004377
 21
0.0
 31
0.0
  0
LINE
  5
1A5
330
48
100
AcDbEntity
  8
0
  6
Continuous
 62
    31
100
AcDbLine
 10
-13.0
 20
-6.999999999995197
 30
0.0
 11
10.8
 21
-6.999999999995197
 31
0.0
  0
LINE
  5
1A6
330
48
100
AcDbEntity
  8
0
  6
Continuous
 62
    31
100
AcDbLine
 10
-13.0
 20
33.0000000000049
 30
0.0
 11
10.8
 21
33.0000000000049
 31
0.0
  0
LINE
  5
1A7
330
48
100
AcDbEntity
  8
0
  6
DASHED
 62
    31
100
AcDbLine
 10
-11.5
 20
31.30000000000486
 30
0.0
 11
8.0
 21
31.30000000000486
 31
0.0
  0
LINE
  5
1A8
330
48
100
AcDbEntity
  8
0
  6
DASHED
 62
    31
100
AcDbLine
 10
-11.5
 20
31.30000000000486
 30
0.0
 11
-11.5
 21
-5.749999999995183
 31
0.0
  0
LINE
  5
1A9
330
48
100
AcDbEntity
  8
0
  6
DASHED
 62
    31
100
AcDbLine
 10
8.0
 20
32.05000000000486
 30
0.0
 11
8.0
 21
-6.04999999999518
 31
0.0
  0
LINE
  5
1AA
330
48
100
AcDbEntity
  8
0
  6
DASHED
 62
    31
100
AcDbLine
 10
8.0
 20
-6.04999999999518
 30
0.0
 11
10.8
 21
-6.04999999999518
 31
0.0
  0
LINE
  5
1AB
330
48
100
AcDbEntity
  8
0
  6
DASHED
 62
    31
100
AcDbLine
 10
-11.5
 20
-5.749999999995168
 30
0.0
 11
8.0
 21
-5.749999999995168
 31
0.0
  0
LINE
  5
1AC
330
48
100
AcDbEntity
  8
0
  6
Continuous
 62
    31
100
AcDbLine
 10
-13.0
 20
33.0000000000049
 30
0.0
 11
-13.0
 21
-6.999999999995197
 31
0.0
  0
LINE
  5
1AD
330
48
100
AcDbEntity
  8
0
  6
DASHED
 62
    31
100
AcDbLine
 10
8.0
 20
32.05000000000486
 30
0.0
 11
10.8
 21
32.05000000000486
 31
0.0
  0
LINE
  5
1AE
330
48
100
AcDbEntity
  8
0
  6
Continuous
 62
    31
100
AcDbLine
 10
10.8
 20
33.0000000000049
 30
0.0
 11
10.8
 21
-6.999999999995197
 31
0.0
  0
LINE
  5
1AF
330
48
100
AcDbEntity
  8
0
  6
CENTER
 62
    31
100
AcDbLine
 10
9.5
 20
35.31150236870762
 30
0.0
 11
9.5
 21
30.80502386785385
 31
0.0
  0
ARC
  5
1B0
330
48
100
AcDbEntity
  8
0
  6
Continuous
 62
    31
100
AcDbCircle
 10
0.0
 20
1.0
 30
0.0
 40
3.500000000004377
100
AcDbArc
 50
0.0
 51
180.0
  0
CIRCLE
  5
1B1
330
48
100
AcDbEntity
  8
0
  6
DASHED
 62
    31
100
AcDbCircle
 10
9.5
 20
8.000000000004846
 30
0.0
 40
1.15
  0
CIRCLE
  5
1B2
330
48
100
AcDbEntity
  8
0
  6
Continuous
 62
    31
100
AcDbCircle
 10
9.5
 20
18.00000000000485
 30
0.0
 40
1.15
  0
CIRCLE
  5
1B3
330
48
100
AcDbEntity
  8
0
  6
DASHED
 62
    31
100
AcDbCircle
 10
9.5
 20
8.000000000004846
 30
0.0
 40
0.8500000000000001
  0
CIRCLE
  5
1B4
330
48
100
AcDbEntity
  8
0
  6
Continuous
 62
    31
100
AcDbCircle
 10
9.5
 20
18.00000000000485
 30
0.0
 40
0.85
  0
CIRCLE
  5
1B5
330
48
100
AcDbEntity
  8
0
  6
Continuous
 62
    31
100
AcDbCircle
 10
-6.0
 20
-4.0
 30
0.0
 40
0.55
  0
ARC
  5
1B6
330
48
100
AcDbEntity
  8
0
  6
Continuous
 62
    31
100
AcDbCircle
 10
0.0
 20
0.0
 30
0.0
 40
3.500000000004377
100
AcDbArc
 50
180.0
 51
0.0
  0
CIRCLE
  5
1B7
330
48
100
AcDbEntity
  8
0
  6
Continuous
 62
    31
100
AcDbCircle
 10
6.0
 20
4.000000000000014
 30
0.0
 40
0.55
  0
CIRCLE
  5
1B8
330
48
100
AcDbEntity
  8
0
  6
Continuous
 62
    31
100
AcDbCircle
 10
6.0
 20
4.000000000000014
 30
0.0
 40
0.8
  0
CIRCLE
  5
1B9
330
48
100
AcDbEntity
  8
0
  6
Continuous
 62
    31
100
AcDbCircle
 10
-6.0
 20
-4.0
 30
0.0
 40
0.8
  0
ENDBLK
  5
4A
330
48
100
AcDbEntity
  8
0
100
AcDbBlockEnd
  0
BLOCK
  5
261
330
25A
100
AcDbEntity
  8
0
100
AcDbBlockBegin
  2
DIM0001
 70
     0
 10
0.0
 20
0.0
 30
0.0
  3
DIM0001
  1

  0
LINE
  5
25B
330
25A
100
AcDbEntity
  8
0
  6
Continuous
 62
     7
100
AcDbLine
 10
0.0
 20
0.0
 30
0.0
 11
-14.28376585120478
 21
-26.15712737219334
 31
0.0
  0
LINE
  5
25C
330
25A
100
AcDbEntity
  8
0
  6
Continuous
 62
     7
100
AcDbLine
 10
0.0
 20
0.0
 30
0.0
 11
-1.01061443647805
 21
-2.99617346974139
 31
0.0
  0
LINE
  5
25D
330
25A
100
AcDbEntity
  8
0
  6
Continuous
 62
     7
100
AcDbLine
 10
0.0
 20
0.0
 30
0.0
 11
-1.974292117144756
 21
-2.46993271895818
 31
0.0
  0
LINE
  5
25E
330
25A
100
AcDbEntity
  8
0
  6
Continuous
 62
     7
100
AcDbLine
 10
-14.28376585120481
 20
-26.15712737219333
 30
0.0
 11
5.165243009413985
 21
-26.15712737219333
 31
0.0
  0
MTEXT
  5
25F
330
25A
100
AcDbEntity
  8
0
 62
     7
100
AcDbMText
 10
-11.08475699058602
 20
-25.15712737219333
 30
0.0
 40
4.0
 41
0.0
 71
     7
 72
     1
  1
\W0.625;\U+22053.6通し
 73
     1
 44
1.0
  0
ENDBLK
  5
262
330
25A
100
AcDbEntity
  8
0
100
AcDbBlockEnd
  0
BLOCK
  5
265
330
264
100
AcDbEntity
  8
0
100
AcDbBlockBegin
  2
_OPEN
 70
     0
 10
0.0
 20
0.0
 30
0.0
  3
_OPEN
  1

  0
LINE
  5
267
330
264
100
AcDbEntity
  8
0
  6
ByBlock
 62
     0
370
    -2
100
AcDbLine
 10
-1.0
 20
0.166667
 30
0.0
 11
0.0
 21
0.0
 31
0.0
  0
LINE
  5
268
330
264
100
AcDbEntity
  8
0
  6
ByBlock
 62
     0
370
    -2
100
AcDbLine
 10
-1.0
 20
-0.166667
 30
0.0
 11
0.0
 21
0.0
 31
0.0
  0
LINE
  5
269
330
264
100
AcDbEntity
  8
0
  6
ByBlock
 62
     0
370
    -2
100
AcDbLine
 10
0.0
 20
0.0
 30
0.0
 11
-1.0
 21
0.0
 31
0.0
  0
ENDBLK
  5
266
330
264
100
AcDbEntity
  8
0
100
AcDbBlockEnd
  0
BLOCK
  5
274
330
26B
100
AcDbEntity
  8
0
100
AcDbBlockBegin
  2
*D7
 70
     1
 10
0.0
 20
0.0
 30
0.0
  3
*D7
  1

  0
LINE
  5
26C
330
26B
100
AcDbEntity
  8
0
 62
     0
370
    -2
100
AcDbLine
 10
238.6004687649169
 20
70.52595714613595
 30
0.0
 11
238.6004687649169
 21
81.73482690156825
 31
0.0
  0
LINE
  5
26D
330
26B
100
AcDbEntity
  8
0
 62
     0
370
    -2
100
AcDbLine
 10
241.7144687649169
 20
78.73482690156825
 30
0.0
 11
244.4864687649169
 21
78.73482690156825
 31
0.0
  0
INSERT
  5
26E
330
26B
100
AcDbEntity
  8
0
 62
     0
370
    -2
100
AcDbBlockReference
  2
_OPEN
 10
238.6004687649169
 20
78.73482690156825
 30
0.0
 41
3.114
 42
3.114
 43
3.114
 50
180.0
  0
INSERT
  5
26F
330
26B
100
AcDbEntity
  8
0
 62
     0
370
    -2
100
AcDbBlockReference
  2
_OPEN
 10
247.6004687649169
 20
78.73482690156825
 30
0.0
 41
3.114
 42
3.114
 43
3.114
  0
MTEXT
  5
270
330
26B
100
AcDbEntity
  8
0
 62
     0
100
AcDbMText
 10
243.1014687649169
 20
81.73482690156825
 30
0.0
 40
4.0
 41
0.0
 71
     5
 72
     1
  1
9
 73
     1
 44
1.0
  0
POINT
  5
271
330
26B
100
AcDbEntity
  8
Defpoints
 62
     0
100
AcDbPoint
 10
238.6004687649169
 20
67.98595714613595
 30
0.0
  0
POINT
  5
272
330
26B
100
AcDbEntity
  8
Defpoints
 62
     0
100
AcDbPoint
 10
247.6004687649169
 20
78.73382690156825
 30
0.0
  0
POINT
  5
273
330
26B
100
AcDbEntity
  8
Defpoints
 62
     0
100
AcDbPoint
 10
247.6004687649169
 20
78.73382690156825
 30
0.0
  0
ENDBLK
  5
275
330
26B
100
AcDbEntity
  8
0
100
AcDbBlockEnd
  0
BLOCK
  5
280
330
277
100
AcDbEntity
  8
0
100
AcDbBlockBegin
  2
*D8
 70
     1
 10
0.0
 20
0.0
 30
0.0
  3
*D8
  1

  0
LINE
  5
278
330
277
100
AcDbEntity
  8
0
 62
     0
370
    -2
100
AcDbLine
 10
135.6004687649125
 20
25.44595714613114
 30
0.0
 11
135.6004687649125
 21
14.37174044813024
 31
0.0
  0
LINE
  5
279
330
277
100
AcDbEntity
  8
0
 62
     0
370
    -2
100
AcDbLine
 10
182.4864687649125
 20
16.37174044813024
 30
0.0
 11
138.7144687649125
 21
16.37174044813024
 31
0.0
  0
INSERT
  5
27A
330
277
100
AcDbEntity
  8
0
 62
     0
370
    -2
100
AcDbBlockReference
  2
_OPEN
 10
185.6004687649125
 20
16.37174044813024
 30
0.0
 41
3.114
 42
3.114
 43
3.114
  0
INSERT
  5
27B
330
277
100
AcDbEntity
  8
0
 62
     0
370
    -2
100
AcDbBlockReference
  2
_OPEN
 10
135.6004687649125
 20
16.37174044813024
 30
0.0
 41
3.114
 42
3.114
 43
3.114
 50
180.0
  0
MTEXT
  5
27C
330
277
100
AcDbEntity
  8
0
 62
     0
100
AcDbMText
 10
160.6014687649125
 20
19.37174044813024
 30
0.0
 40
4.0
 41
0.0
 71
     5
 72
     1
  1
50
 73
     1
 44
1.0
  0
POINT
  5
27D
330
277
100
AcDbEntity
  8
Defpoints
 62
     0
100
AcDbPoint
 10
185.6004687649125
 20
27.98595714613114
 30
0.0
  0
POINT
  5
27E
330
277
100
AcDbEntity
  8
Defpoints
 62
     0
100
AcDbPoint
 10
135.6004687649125
 20
27.98595714613114
 30
0.0
  0
POINT
  5
27F
330
277
100
AcDbEntity
  8
Defpoints
 62
     0
100
AcDbPoint
 10
135.6004687649125
 20
16.37074044813024
 30
0.0
  0
ENDBLK
  5
281
330
277
100
AcDbEntity
  8
0
100
AcDbBlockEnd
  0
BLOCK
  5
28C
330
283
100
AcDbEntity
  8
0
100
AcDbBlockBegin
  2
*D9
 70
     1
 10
0.0
 20
0.0
 30
0.0
  3
*D9
  1

  0
LINE
  5
284
330
283
100
AcDbEntity
  8
0
 62
     0
370
    -2
100
AcDbLine
 10
149.6004687649125
 20
34.52595714613117
 30
0.0
 11
149.6004687649125
 21
81.73482690156825
 31
0.0
  0
LINE
  5
285
330
283
100
AcDbEntity
  8
0
 62
     0
370
    -2
100
AcDbLine
 10
152.7144687649125
 20
78.73482690156825
 30
0.0
 11
162.4864687649125
 21
78.73482690156825
 31
0.0
  0
INSERT
  5
286
330
283
100
AcDbEntity
  8
0
 62
     0
370
    -2
100
AcDbBlockReference
  2
_OPEN
 10
149.6004687649125
 20
78.73482690156825
 30
0.0
 41
3.114
 42
3.114
 43
3.114
 50
180.0
  0
INSERT
  5
287
330
283
100
AcDbEntity
  8
0
 62
     0
370
    -2
100
AcDbBlockReference
  2
_OPEN
 10
165.6004687649125
 20
78.73482690156825
 30
0.0
 41
3.114
 42
3.114
 43
3.114
  0
MTEXT
  5
288
330
283
100
AcDbEntity
  8
0
 62
     0
100
AcDbMText
 10
157.6014687649125
 20
81.73482690156825
 30
0.0
 40
4.0
 41
0.0
 71
     5
 72
     1
  1
16
 73
     1
 44
1.0
  0
POINT
  5
289
330
283
100
AcDbEntity
  8
Defpoints
 62
     0
100
AcDbPoint
 10
149.6004687649125
 20
31.98595714613117
 30
0.0
  0
POINT
  5
28A
330
283
100
AcDbEntity
  8
Defpoints
 62
     0
100
AcDbPoint
 10
165.6004687649125
 20
78.73382690156825
 30
0.0
  0
POINT
  5
28B
330
283
100
AcDbEntity
  8
Defpoints
 62
     0
100
AcDbPoint
 10
165.6004687649125
 20
78.73382690156825
 30
0.0
  0
ENDBLK
  5
28D
330
283
100
AcDbEntity
  8
0
100
AcDbBlockEnd
  0
BLOCK
  5
295
330
28E
100
AcDbEntity
  8
0
100
AcDbBlockBegin
  2
DIM0002
 70
     0
 10
0.0
 20
0.0
 30
0.0
  3
DIM0002
  1

  0
LINE
  5
28F
330
28E
100
AcDbEntity
  8
0
  6
Continuous
 62
     7
100
AcDbLine
 10
0.0
 20
0.0
 30
0.0
 11
11.04450524043105
 21
22.02146658876012
 31
0.0
  0
LINE
  5
290
330
28E
100
AcDbEntity
  8
0
  6
Continuous
 62
     7
100
AcDbLine
 10
0.0
 20
0.0
 30
0.0
 11
0.905298016010875
 21
3.029658809537267
 31
0.0
  0
LINE
  5
291
330
28E
100
AcDbEntity
  8
0
  6
Continuous
 62
     7
100
AcDbLine
 10
0.0
 20
0.0
 30
0.0
 11
1.886776258620728
 21
2.537414501003951
 31
0.0
  0
LINE
  5
292
330
28E
100
AcDbEntity
  8
0
  6
Continuous
 62
     7
100
AcDbLine
 10
11.04450524043102
 20
22.02146658876013
 30
0.0
 11
-21.42289166957553
 21
22.02146658876013
 31
0.0
  0
MTEXT
  5
293
330
28E
100
AcDbEntity
  8
0
 62
     7
100
AcDbMText
 10
-21.42289166957553
 20
23.02146658876013
 30
0.0
 40
4.0
 41
0.0
 71
     7
 72
     1
  1
\W0.625;裏面ヨリ3-M3Ｄ3
 73
     1
 44
1.0
  0
ENDBLK
  5
296
330
28E
100
AcDbEntity
  8
0
100
AcDbBlockEnd
  0
BLOCK
  5
2A1
330
298
100
AcDbEntity
  8
0
100
AcDbBlockBegin
  2
*D11
 70
     1
 10
0.0
 20
0.0
 30
0.0
  3
*D11
  1

  0
LINE
  5
299
330
298
100
AcDbEntity
  8
0
 62
     0
370
    -2
100
AcDbLine
 10
165.6004687649125
 20
34.52595714613118
 30
0.0
 11
165.6004687649125
 21
81.73482690156825
 31
0.0
  0
LINE
  5
29A
330
298
100
AcDbEntity
  8
0
 62
     0
370
    -2
100
AcDbLine
 10
168.7144687649125
 20
78.73482690156825
 30
0.0
 11
178.4864687649125
 21
78.73482690156825
 31
0.0
  0
INSERT
  5
29B
330
298
100
AcDbEntity
  8
0
 62
     0
370
    -2
100
AcDbBlockReference
  2
_OPEN
 10
165.6004687649125
 20
78.73482690156825
 30
0.0
 41
3.114
 42
3.114
 43
3.114
 50
180.0
  0
INSERT
  5
29C
330
298
100
AcDbEntity
  8
0
 62
     0
370
    -2
100
AcDbBlockReference
  2
_OPEN
 10
181.6004687649125
 20
78.73482690156825
 30
0.0
 41
3.114
 42
3.114
 43
3.114
  0
MTEXT
  5
29D
330
298
100
AcDbEntity
  8
0
 62
     0
100
AcDbMText
 10
173.6014687649125
 20
81.73482690156825
 30
0.0
 40
4.0
 41
0.0
 71
     5
 72
     1
  1
16
 73
     1
 44
1.0
  0
POINT
  5
29E
330
298
100
AcDbEntity
  8
Defpoints
 62
     0
100
AcDbPoint
 10
165.6004687649125
 20
31.98595714613118
 30
0.0
  0
POINT
  5
29F
330
298
100
AcDbEntity
  8
Defpoints
 62
     0
100
AcDbPoint
 10
181.6004687649125
 20
78.73382690156825
 30
0.0
  0
POINT
  5
2A0
330
298
100
AcDbEntity
  8
Defpoints
 62
     0
100
AcDbPoint
 10
181.6004687649125
 20
78.73382690156825
 30
0.0
  0
ENDBLK
  5
2A2
330
298
100
AcDbEntity
  8
0
100
AcDbBlockEnd
  0
BLOCK
  5
2B1
330
2A4
100
AcDbEntity
  8
0
100
AcDbBlockBegin
  2
*D12
 70
     1
 10
0.0
 20
0.0
 30
0.0
  3
*D12
  1

  0
LINE
  5
2A5
330
2A4
100
AcDbEntity
  8
0
 62
     0
370
    -2
100
AcDbLine
 10
185.6004687649125
 20
25.44595714613114
 30
0.0
 11
185.6004687649125
 21
14.37174044813024
 31
0.0
  0
LINE
  5
2A6
330
2A4
100
AcDbEntity
  8
0
 62
     0
370
    -2
100
AcDbLine
 10
190.9004687649125
 20
27.44595714613114
 30
0.0
 11
190.9004687649125
 21
14.37174044813024
 31
0.0
  0
LINE
  5
2A7
330
2A4
100
AcDbEntity
  8
0
 62
     0
370
    -2
100
AcDbLine
 10
190.9004687649125
 20
16.37174044813024
 30
0.0
 11
207.5094211458649
 21
16.37174044813024
 31
0.0
  0
LINE
  5
2A8
330
2A4
100
AcDbEntity
  8
0
 62
     0
370
    -2
100
AcDbLine
 10
185.6004687649125
 20
16.37174044813024
 30
0.0
 11
190.9004687649125
 21
16.37174044813024
 31
0.0
  0
LINE
  5
2A9
330
2A4
100
AcDbEntity
  8
0
 62
     0
370
    -2
100
AcDbLine
 10
182.4864687649125
 20
16.37174044813024
 30
0.0
 11
179.3724687649125
 21
16.37174044813024
 31
0.0
  0
LINE
  5
2AA
330
2A4
100
AcDbEntity
  8
0
 62
     0
370
    -2
100
AcDbLine
 10
194.0144687649125
 20
16.37174044813024
 30
0.0
 11
197.1284687649125
 21
16.37174044813024
 31
0.0
  0
INSERT
  5
2AB
330
2A4
100
AcDbEntity
  8
0
 62
     0
370
    -2
100
AcDbBlockReference
  2
_OPEN
 10
185.6004687649125
 20
16.37174044813024
 30
0.0
 41
3.114
 42
3.114
 43
3.114
  0
INSERT
  5
2AC
330
2A4
100
AcDbEntity
  8
0
 62
     0
370
    -2
100
AcDbBlockReference
  2
_OPEN
 10
190.9004687649125
 20
16.37174044813024
 30
0.0
 41
3.114
 42
3.114
 43
3.114
 50
180.0
  0
MTEXT
  5
2AD
330
2A4
100
AcDbEntity
  8
0
 62
     0
100
AcDbMText
 10
202.3189449553887
 20
19.37174044813024
 30
0.0
 40
4.0
 41
0.0
 71
     5
 72
     1
  1
5.3
 73
     1
 44
1.0
  0
POINT
  5
2AE
330
2A4
100
AcDbEntity
  8
Defpoints
 62
     0
100
AcDbPoint
 10
185.6004687649125
 20
27.98595714613114
 30
0.0
  0
POINT
  5
2AF
330
2A4
100
AcDbEntity
  8
Defpoints
 62
     0
100
AcDbPoint
 10
190.9004687649125
 20
29.98595714613114
 30
0.0
  0
POINT
  5
2B0
330
2A4
100
AcDbEntity
  8
Defpoints
 62
     0
100
AcDbPoint
 10
190.9004687649125
 20
16.37074044813024
 30
0.0
  0
ENDBLK
  5
2B2
330
2A4
100
AcDbEntity
  8
0
100
AcDbBlockEnd
  0
BLOCK
  5
2BE
330
2B4
100
AcDbEntity
  8
0
100
AcDbBlockBegin
  2
*D13
 70
     1
 10
0.0
 20
0.0
 30
0.0
  3
*D13
  1

  0
LINE
  5
2B5
330
2B4
100
AcDbEntity
  8
0
 62
     0
370
    -2
100
AcDbLine
 10
221.0604687649169
 20
67.98595714613595
 30
0.0
 11
211.5123056967292
 21
67.98595714613595
 31
0.0
  0
LINE
  5
2B6
330
2B4
100
AcDbEntity
  8
0
 62
     0
370
    -2
100
AcDbLine
 10
221.0604687649169
 20
27.98595714613585
 30
0.0
 11
211.5123056967292
 21
27.98595714613585
 31
0.0
  0
LINE
  5
2B7
330
2B4
100
AcDbEntity
  8
0
 62
     0
370
    -2
100
AcDbLine
 10
213.5123056967292
 20
64.87195714613594
 30
0.0
 11
213.5123056967292
 21
31.09995714613585
 31
0.0
  0
INSERT
  5
2B8
330
2B4
100
AcDbEntity
  8
0
 62
     0
370
    -2
100
AcDbBlockReference
  2
_OPEN
 10
213.5123056967292
 20
67.98595714613595
 30
0.0
 41
3.114
 42
3.114
 43
3.114
 50
90.00000000000004
  0
INSERT
  5
2B9
330
2B4
100
AcDbEntity
  8
0
 62
     0
370
    -2
100
AcDbBlockReference
  2
_OPEN
 10
213.5123056967292
 20
27.98595714613585
 30
0.0
 41
3.114
 42
3.114
 43
3.114
 50
270.0000000000001
  0
MTEXT
  5
2BA
330
2B4
100
AcDbEntity
  8
0
 62
     0
100
AcDbMText
 10
210.5123056967292
 20
47.98695714613589
 30
0.0
 40
4.0
 41
0.0
 71
     5
 72
     1
  1
40
 11
-7.105427357600985E-16
 21
1.0
 31
0.0
 73
     1
 44
1.0
  0
POINT
  5
2BB
330
2B4
100
AcDbEntity
  8
Defpoints
 62
     0
100
AcDbPoint
 10
223.6004687649169
 20
67.98595714613595
 30
0.0
  0
POINT
  5
2BC
330
2B4
100
AcDbEntity
  8
Defpoints
 62
     0
100
AcDbPoint
 10
223.6004687649169
 20
27.98595714613585
 30
0.0
  0
POINT
  5
2BD
330
2B4
100
AcDbEntity
  8
Defpoints
 62
     0
100
AcDbPoint
 10
213.5113056967292
 20
27.98595714613584
 30
0.0
  0
ENDBLK
  5
2BF
330
2B4
100
AcDbEntity
  8
0
100
AcDbBlockEnd
  0
BLOCK
  5
2CB
330
2C1
100
AcDbEntity
  8
0
100
AcDbBlockBegin
  2
*D14
 70
     1
 10
0.0
 20
0.0
 30
0.0
  3
*D14
  1

  0
LINE
  5
2C2
330
2C1
100
AcDbEntity
  8
0
 62
     0
370
    -2
100
AcDbLine
 10
223.6004687649169
 20
70.52595714613595
 30
0.0
 11
223.6004687649169
 21
89.39835291443384
 31
0.0
  0
LINE
  5
2C3
330
2C1
100
AcDbEntity
  8
0
 62
     0
370
    -2
100
AcDbLine
 10
247.6004687649169
 20
69.52595714613118
 30
0.0
 11
247.6004687649169
 21
89.39835291443384
 31
0.0
  0
LINE
  5
2C4
330
2C1
100
AcDbEntity
  8
0
 62
     0
370
    -2
100
AcDbLine
 10
226.7144687649169
 20
87.39835291443384
 30
0.0
 11
244.4864687649169
 21
87.39835291443384
 31
0.0
  0
INSERT
  5
2C5
330
2C1
100
AcDbEntity
  8
0
 62
     0
370
    -2
100
AcDbBlockReference
  2
_OPEN
 10
223.6004687649169
 20
87.39835291443384
 30
0.0
 41
3.114
 42
3.114
 43
3.114
 50
180.0
  0
INSERT
  5
2C6
330
2C1
100
AcDbEntity
  8
0
 62
     0
370
    -2
100
AcDbBlockReference
  2
_OPEN
 10
247.6004687649169
 20
87.39835291443384
 30
0.0
 41
3.114
 42
3.114
 43
3.114
  0
MTEXT
  5
2C7
330
2C1
100
AcDbEntity
  8
0
 62
     0
100
AcDbMText
 10
235.7381692138802
 20
90.39835291443384
 30
0.0
 40
4.0
 41
0.0
 71
     5
 72
     1
  1
24
 73
     1
 44
1.0
  0
POINT
  5
2C8
330
2C1
100
AcDbEntity
  8
Defpoints
 62
     0
100
AcDbPoint
 10
223.6004687649169
 20
67.98595714613595
 30
0.0
  0
POINT
  5
2C9
330
2C1
100
AcDbEntity
  8
Defpoints
 62
     0
100
AcDbPoint
 10
247.6004687649169
 20
66.98595714613117
 30
0.0
  0
POINT
  5
2CA
330
2C1
100
AcDbEntity
  8
Defpoints
 62
     0
100
AcDbPoint
 10
247.6004687649169
 20
87.39835291443384
 30
0.0
  0
ENDBLK
  5
2CC
330
2C1
100
AcDbEntity
  8
0
100
AcDbBlockEnd
  0
BLOCK
  5
2D8
330
2CE
100
AcDbEntity
  8
0
100
AcDbBlockBegin
  2
*D15
 70
     1
 10
0.0
 20
0.0
 30
0.0
  3
*D15
  1

  0
LINE
  5
2CF
330
2CE
100
AcDbEntity
  8
0
 62
     0
370
    -2
100
AcDbLine
 10
247.6004687649169
 20
26.44595714613113
 30
0.0
 11
247.6004687649169
 21
14.37174044813024
 31
0.0
  0
LINE
  5
2D0
330
2CE
100
AcDbEntity
  8
0
 62
     0
370
    -2
100
AcDbLine
 10
236.6004687649169
 20
32.44595714613104
 30
0.0
 11
236.6004687649169
 21
14.37174044813024
 31
0.0
  0
LINE
  5
2D1
330
2CE
100
AcDbEntity
  8
0
 62
     0
370
    -2
100
AcDbLine
 10
244.4864687649169
 20
16.37174044813024
 30
0.0
 11
239.7144687649169
 21
16.37174044813024
 31
0.0
  0
INSERT
  5
2D2
330
2CE
100
AcDbEntity
  8
0
 62
     0
370
    -2
100
AcDbBlockReference
  2
_OPEN
 10
247.6004687649169
 20
16.37174044813024
 30
0.0
 41
3.114
 42
3.114
 43
3.114
  0
INSERT
  5
2D3
330
2CE
100
AcDbEntity
  8
0
 62
     0
370
    -2
100
AcDbBlockReference
  2
_OPEN
 10
236.6004687649169
 20
16.37174044813024
 30
0.0
 41
3.114
 42
3.114
 43
3.114
 50
180.0
  0
MTEXT
  5
2D4
330
2CE
100
AcDbEntity
  8
0
 62
     0
100
AcDbMText
 10
242.1014687649169
 20
19.56221663860643
 30
0.0
 40
4.0
 41
0.0
 71
     5
 72
     1
  1
\A1;\A1;11{\H0.5x;%%p0.3}
 73
     1
 44
1.0
  0
POINT
  5
2D5
330
2CE
100
AcDbEntity
  8
Defpoints
 62
     0
100
AcDbPoint
 10
247.6004687649169
 20
28.98595714613113
 30
0.0
  0
POINT
  5
2D6
330
2CE
100
AcDbEntity
  8
Defpoints
 62
     0
100
AcDbPoint
 10
236.6004687649169
 20
34.98595714613104
 30
0.0
  0
POINT
  5
2D7
330
2CE
100
AcDbEntity
  8
Defpoints
 62
     0
100
AcDbPoint
 10
236.6004687649169
 20
16.37074044813024
 30
0.0
  0
ENDBLK
  5
2D9
330
2CE
100
AcDbEntity
  8
0
100
AcDbBlockEnd
  0
BLOCK
  5
2E8
330
2DB
100
AcDbEntity
  8
0
100
AcDbBlockBegin
  2
*D16
 70
     1
 10
0.0
 20
0.0
 30
0.0
  3
*D16
  1

  0
LINE
  5
2DC
330
2DB
100
AcDbEntity
  8
0
 62
     0
370
    -2
100
AcDbLine
 10
249.9404687649169
 20
27.98595714613585
 30
0.0
 11
260.4956880123399
 21
27.98595714613584
 31
0.0
  0
LINE
  5
2DD
330
2DB
100
AcDbEntity
  8
0
 62
     0
370
    -2
100
AcDbLine
 10
239.1404687649169
 20
34.98595714613104
 30
0.0
 11
260.4956880123399
 21
34.98595714613104
 31
0.0
  0
LINE
  5
2DE
330
2DB
100
AcDbEntity
  8
0
 62
     0
370
    -2
100
AcDbLine
 10
258.4956880123399
 20
34.98595714613104
 30
0.0
 11
258.4956880123399
 21
60.35681428898818
 31
0.0
  0
LINE
  5
2DF
330
2DB
100
AcDbEntity
  8
0
 62
     0
370
    -2
100
AcDbLine
 10
258.4956880123399
 20
27.98595714613584
 30
0.0
 11
258.4956880123399
 21
34.98595714613104
 31
0.0
  0
LINE
  5
2E0
330
2DB
100
AcDbEntity
  8
0
 62
     0
370
    -2
100
AcDbLine
 10
258.4956880123399
 20
24.87195714613584
 30
0.0
 11
258.4956880123399
 21
21.75795714613584
 31
0.0
  0
LINE
  5
2E1
330
2DB
100
AcDbEntity
  8
0
 62
     0
370
    -2
100
AcDbLine
 10
258.4956880123399
 20
38.09995714613103
 30
0.0
 11
258.4956880123399
 21
41.21395714613103
 31
0.0
  0
INSERT
  5
2E2
330
2DB
100
AcDbEntity
  8
0
 62
     0
370
    -2
100
AcDbBlockReference
  2
_OPEN
 10
258.4956880123399
 20
27.98595714613584
 30
0.0
 41
3.114
 42
3.114
 43
3.114
 50
90.0
  0
INSERT
  5
2E3
330
2DB
100
AcDbEntity
  8
0
 62
     0
370
    -2
100
AcDbBlockReference
  2
_OPEN
 10
258.4956880123399
 20
34.98595714613104
 30
0.0
 41
3.114
 42
3.114
 43
3.114
 50
270.0
  0
MTEXT
  5
2E4
330
2DB
100
AcDbEntity
  8
0
 62
     0
100
AcDbMText
 10
255.3052118218637
 20
50.78538571755961
 30
0.0
 40
4.0
 41
0.0
 71
     5
 72
     1
  1
\A1;\A1;7{\H0.5x;%%p0.3}
 11
0.0
 21
1.0
 31
0.0
 73
     1
 44
1.0
  0
POINT
  5
2E5
330
2DB
100
AcDbEntity
  8
Defpoints
 62
     0
100
AcDbPoint
 10
247.4004687649169
 20
27.98595714613585
 30
0.0
  0
POINT
  5
2E6
330
2DB
100
AcDbEntity
  8
Defpoints
 62
     0
100
AcDbPoint
 10
236.6004687649169
 20
34.98595714613104
 30
0.0
  0
POINT
  5
2E7
330
2DB
100
AcDbEntity
  8
Defpoints
 62
     0
100
AcDbPoint
 10
258.4956880123399
 20
34.98595714613104
 30
0.0
  0
ENDBLK
  5
2E9
330
2DB
100
AcDbEntity
  8
0
100
AcDbBlockEnd
  0
BLOCK
  5
2F7
330
2EB
100
AcDbEntity
  8
0
100
AcDbBlockBegin
  2
*D17
 70
     1
 10
0.0
 20
0.0
 30
0.0
  3
*D17
  1

  0
LINE
  5
2EC
330
2EB
100
AcDbEntity
  8
0
 62
     0
370
    -2
100
AcDbLine
 10
185.6004687649125
 20
70.52595714613125
 30
0.0
 11
185.6004687649125
 21
80.73382690156825
 31
0.0
  0
LINE
  5
2ED
330
2EB
100
AcDbEntity
  8
0
 62
     0
370
    -2
100
AcDbLine
 10
181.6004687649125
 20
66.52595714613119
 30
0.0
 11
181.6004687649125
 21
80.73382690156825
 31
0.0
  0
LINE
  5
2EE
330
2EB
100
AcDbEntity
  8
0
 62
     0
370
    -2
100
AcDbLine
 10
185.6004687649125
 20
78.73382690156825
 30
0.0
 11
181.6004687649125
 21
78.73382690156825
 31
0.0
  0
LINE
  5
2EF
330
2EB
100
AcDbEntity
  8
0
 62
     0
370
    -2
100
AcDbLine
 10
188.7144687649125
 20
78.73382690156825
 30
0.0
 11
191.8284687649125
 21
78.73382690156825
 31
0.0
  0
LINE
  5
2F0
330
2EB
100
AcDbEntity
  8
0
 62
     0
370
    -2
100
AcDbLine
 10
178.4864687649125
 20
78.73382690156825
 30
0.0
 11
175.3724687649125
 21
78.73382690156825
 31
0.0
  0
INSERT
  5
2F1
330
2EB
100
AcDbEntity
  8
0
 62
     0
370
    -2
100
AcDbBlockReference
  2
_OPEN
 10
185.6004687649125
 20
78.73382690156825
 30
0.0
 41
3.114
 42
3.114
 43
3.114
 50
180.0
  0
INSERT
  5
2F2
330
2EB
100
AcDbEntity
  8
0
 62
     0
370
    -2
100
AcDbBlockReference
  2
_OPEN
 10
181.6004687649125
 20
78.73382690156825
 30
0.0
 41
3.114
 42
3.114
 43
3.114
  0
MTEXT
  5
2F3
330
2EB
100
AcDbEntity
  8
0
 62
     0
100
AcDbMText
 10
183.6014687649125
 20
81.73382690156825
 30
0.0
 40
4.0
 41
0.0
 71
     5
 72
     1
  1
4
 73
     1
 44
1.0
  0
POINT
  5
2F4
330
2EB
100
AcDbEntity
  8
Defpoints
 62
     0
100
AcDbPoint
 10
185.6004687649125
 20
67.98595714613124
 30
0.0
  0
POINT
  5
2F5
330
2EB
100
AcDbEntity
  8
Defpoints
 62
     0
100
AcDbPoint
 10
181.6004687649125
 20
63.98595714613118
 30
0.0
  0
POINT
  5
2F6
330
2EB
100
AcDbEntity
  8
Defpoints
 62
     0
100
AcDbPoint
 10
181.6004687649125
 20
78.73382690156825
 30
0.0
  0
ENDBLK
  5
2F8
330
2EB
100
AcDbEntity
  8
0
100
AcDbBlockEnd
  0
BLOCK
  5
306
330
2FA
100
AcDbEntity
  8
0
100
AcDbBlockBegin
  2
*D18
 70
     1
 10
0.0
 20
0.0
 30
0.0
  3
*D18
  1

  0
LINE
  5
2FB
330
2FA
100
AcDbEntity
  8
0
 62
     0
370
    -2
100
AcDbLine
 10
188.8904687649125
 20
27.98595714613114
 30
0.0
 11
201.973235022698
 21
27.98595714613114
 31
0.0
  0
LINE
  5
2FC
330
2FA
100
AcDbEntity
  8
0
 62
     0
370
    -2
100
AcDbLine
 10
152.1404687649125
 20
31.98595714613117
 30
0.0
 11
201.973235022698
 21
31.98595714613117
 31
0.0
  0
LINE
  5
2FD
330
2FA
100
AcDbEntity
  8
0
 62
     0
370
    -2
100
AcDbLine
 10
199.973235022698
 20
27.98595714613114
 30
0.0
 11
199.973235022698
 21
31.98595714613117
 31
0.0
  0
LINE
  5
2FE
330
2FA
100
AcDbEntity
  8
0
 62
     0
370
    -2
100
AcDbLine
 10
199.973235022698
 20
24.87195714613114
 30
0.0
 11
199.973235022698
 21
21.75795714613114
 31
0.0
  0
LINE
  5
2FF
330
2FA
100
AcDbEntity
  8
0
 62
     0
370
    -2
100
AcDbLine
 10
199.973235022698
 20
35.09995714613117
 30
0.0
 11
199.973235022698
 21
38.21395714613116
 31
0.0
  0
INSERT
  5
300
330
2FA
100
AcDbEntity
  8
0
 62
     0
370
    -2
100
AcDbBlockReference
  2
_OPEN
 10
199.973235022698
 20
27.98595714613114
 30
0.0
 41
3.114
 42
3.114
 43
3.114
 50
90.0
  0
INSERT
  5
301
330
2FA
100
AcDbEntity
  8
0
 62
     0
370
    -2
100
AcDbBlockReference
  2
_OPEN
 10
199.973235022698
 20
31.98595714613117
 30
0.0
 41
3.114
 42
3.114
 43
3.114
 50
270.0
  0
MTEXT
  5
302
330
2FA
100
AcDbEntity
  8
0
 62
     0
100
AcDbMText
 10
196.973235022698
 20
29.98695714613116
 30
0.0
 40
4.0
 41
0.0
 71
     5
 72
     1
  1
4
 11
0.0
 21
1.0
 31
0.0
 73
     1
 44
1.0
  0
POINT
  5
303
330
2FA
100
AcDbEntity
  8
Defpoints
 62
     0
100
AcDbPoint
 10
186.3504687649125
 20
27.98595714613114
 30
0.0
  0
POINT
  5
304
330
2FA
100
AcDbEntity
  8
Defpoints
 62
     0
100
AcDbPoint
 10
149.6004687649125
 20
31.98595714613117
 30
0.0
  0
POINT
  5
305
330
2FA
100
AcDbEntity
  8
Defpoints
 62
     0
100
AcDbPoint
 10
199.973235022698
 20
31.98595714613116
 30
0.0
  0
ENDBLK
  5
307
330
2FA
100
AcDbEntity
  8
0
100
AcDbBlockEnd
  0
BLOCK
  5
312
330
309
100
AcDbEntity
  8
0
100
AcDbBlockBegin
  2
*D19
 70
     1
 10
0.0
 20
0.0
 30
0.0
  3
*D19
  1

  0
LINE
  5
30A
330
309
100
AcDbEntity
  8
0
 62
     0
370
    -2
100
AcDbLine
 10
153.6404687649125
 20
63.98595714613118
 30
0.0
 11
202.974235022698
 21
63.98595714613121
 31
0.0
  0
LINE
  5
30B
330
309
100
AcDbEntity
  8
0
 62
     0
370
    -2
100
AcDbLine
 10
199.974235022698
 20
60.87195714613121
 30
0.0
 11
199.974235022698
 21
35.09995714613117
 31
0.0
  0
INSERT
  5
30C
330
309
100
AcDbEntity
  8
0
 62
     0
370
    -2
100
AcDbBlockReference
  2
_OPEN
 10
199.974235022698
 20
63.98595714613121
 30
0.0
 41
3.114
 42
3.114
 43
3.114
 50
90.0
  0
INSERT
  5
30D
330
309
100
AcDbEntity
  8
0
 62
     0
370
    -2
100
AcDbBlockReference
  2
_OPEN
 10
199.974235022698
 20
31.98595714613117
 30
0.0
 41
3.114
 42
3.114
 43
3.114
 50
270.0
  0
MTEXT
  5
30E
330
309
100
AcDbEntity
  8
0
 62
     0
100
AcDbMText
 10
196.974235022698
 20
47.98695714613118
 30
0.0
 40
4.0
 41
0.0
 71
     5
 72
     1
  1
32
 11
0.0
 21
1.0
 31
0.0
 73
     1
 44
1.0
  0
POINT
  5
30F
330
309
100
AcDbEntity
  8
Defpoints
 62
     0
100
AcDbPoint
 10
151.1004687649125
 20
63.98595714613118
 30
0.0
  0
POINT
  5
310
330
309
100
AcDbEntity
  8
Defpoints
 62
     0
100
AcDbPoint
 10
199.973235022698
 20
31.98595714613117
 30
0.0
  0
POINT
  5
311
330
309
100
AcDbEntity
  8
Defpoints
 62
     0
100
AcDbPoint
 10
199.973235022698
 20
31.98595714613117
 30
0.0
  0
ENDBLK
  5
313
330
309
100
AcDbEntity
  8
0
100
AcDbBlockEnd
  0
ENDSEC
  0
SECTION
  2
ENTITIES
  0
POINT
  5
1BA
330
1F
100
AcDbEntity
  8
0
 62
     7
100
AcDbPoint
 10
136.1004687649169
 20
51.68595714613227
 30
0.0
  0
POINT
  5
1BB
330
1F
100
AcDbEntity
  8
0
 62
   200
100
AcDbPoint
 10
183.1004687649125
 20
29.98595714613117
 30
0.0
  0
POINT
  5
1BC
330
1F
100
AcDbEntity
  8
0
 62
   100
100
AcDbPoint
 10
136.6004687649169
 20
28.98595714613117
 30
0.0
  0
POINT
  5
1BD
330
1F
100
AcDbEntity
  8
0
 62
     7
100
AcDbPoint
 10
166.6004687649124
 20
30.73595714613106
 30
0.0
  0
POINT
  5
1BE
330
1F
100
AcDbEntity
  8
0
 62
   100
100
AcDbPoint
 10
184.6004687649169
 20
66.98595714613117
 30
0.0
  0
POINT
  5
1BF
330
1F
100
AcDbEntity
  8
0
 62
   100
100
AcDbPoint
 10
143.6004687649169
 20
66.98595714613117
 30
0.0
  0
POINT
  5
1C0
330
1F
100
AcDbEntity
  8
0
 62
     7
100
AcDbPoint
 10
183.1004687649125
 20
29.98595714613117
 30
0.0
  0
POINT
  5
1C1
330
1F
100
AcDbEntity
  8
0
 62
   100
100
AcDbPoint
 10
184.6004687649169
 20
28.98595714613117
 30
0.0
  0
POINT
  5
1C2
330
1F
100
AcDbEntity
  8
0
 62
    51
100
AcDbPoint
 10
236.6004687649169
 20
34.98595714613104
 30
0.0
  0
POINT
  5
1C3
330
1F
100
AcDbEntity
  8
0
 62
   151
100
AcDbPoint
 10
159.6004687649125
 20
57.48595714613222
 30
0.0
  0
LINE
  5
1C4
330
1F
100
AcDbEntity
  8
0
  6
Continuous
 62
     3
100
AcDbLine
 10
61.77476157540475
 20
91.69654349676188
 30
0.0
 11
62.98216885826599
 21
92.02006730313994
 31
0.0
  0
LINE
  5
1C5
330
1F
100
AcDbEntity
  8
0
  6
Continuous
 62
   100
100
AcDbLine
 10
136.6004687649169
 20
54.86160149314899
 30
0.0
 11
143.0231184957273
 21
65.98595714613117
 31
0.0
  0
LINE
  5
1C6
330
1F
100
AcDbEntity
  8
0
  6
Continuous
 62
   100
100
AcDbLine
 10
114.1077339667314
 20
80.97214363667187
 30
0.0
 11
126.2320896197135
 21
73.97214363667189
 31
0.0
  0
LINE
  5
1C7
330
1F
100
AcDbEntity
  8
0
  6
Continuous
 62
   100
100
AcDbLine
 10
110.6077339667314
 20
74.9099658101808
 30
0.0
 11
122.7320896197135
 21
67.90996581018081
 31
0.0
  0
LINE
  5
1C8
330
1F
100
AcDbEntity
  8
0
  6
Continuous
 62
   100
100
AcDbLine
 10
136.6004687649169
 20
54.86160149314901
 30
0.0
 11
136.6004687649169
 21
29.98595714613117
 31
0.0
  0
LINE
  5
1C9
330
1F
100
AcDbEntity
  8
0
  6
Continuous
 62
   100
100
AcDbLine
 10
144.7551693032962
 20
66.98595714613117
 30
0.0
 11
183.6004687649169
 21
66.98595714613117
 31
0.0
  0
LINE
  5
1CA
330
1F
100
AcDbEntity
  8
0
  6
Continuous
 62
     3
100
AcDbLine
 10
65.85453998886206
 20
97.28413278526116
 30
0.0
 11
65.85453998886206
 21
94.33964641239407
 31
0.0
  0
LINE
  5
1CB
330
1F
100
AcDbEntity
  8
0
  6
Continuous
 62
   100
100
AcDbLine
 10
183.6004687649169
 20
66.98595714613117
 30
0.0
 11
184.6004687649169
 21
65.98595714613114
 31
0.0
  0
LINE
  5
1CC
330
1F
100
AcDbEntity
  8
0
  6
Continuous
 62
     3
100
AcDbLine
 10
68.40453998886245
 20
98.75637597169475
 30
0.0
 11
65.85453998886246
 21
97.2841327852612
 31
0.0
  0
LINE
  5
1CD
330
1F
100
AcDbEntity
  8
0
  6
DASHED
 62
    31
100
AcDbLine
 10
136.1004687649169
 20
48.4765901461321
 30
0.0
 11
140.1004687649169
 21
48.4765901461321
 31
0.0
  0
LINE
  5
1CE
330
1F
100
AcDbEntity
  8
0
  6
DASHED
 62
    31
100
AcDbLine
 10
136.1004687649169
 20
55.16595714613228
 30
0.0
 11
140.1004687649169
 21
55.16595714613228
 31
0.0
  0
LINE
  5
1CF
330
1F
100
AcDbEntity
  8
0
  6
DASHED
 62
    31
100
AcDbLine
 10
136.1004687649169
 20
48.20595714613214
 30
0.0
 11
140.1004687649169
 21
48.20595714613214
 31
0.0
  0
LINE
  5
1D0
330
1F
100
AcDbEntity
  8
0
  6
DASHED
 62
    31
100
AcDbLine
 10
136.1004687649169
 20
54.89532414613222
 30
0.0
 11
140.1004687649169
 21
54.89532414613222
 31
0.0
  0
LINE
  5
1D1
330
1F
100
AcDbEntity
  8
0
  6
Continuous
 62
     3
100
AcDbLine
 10
46.49313537879291
 20
105.4602235489881
 30
0.0
 11
48.39839126711867
 21
104.3602235489881
 31
0.0
  0
LINE
  5
1D2
330
1F
100
AcDbEntity
  8
0
  6
Continuous
 62
     3
100
AcDbLine
 10
75.73072740856102
 20
116.1137262577983
 30
0.0
 11
75.12992567183258
 21
116.4605993022281
 31
0.0
  0
LINE
  5
1D3
330
1F
100
AcDbEntity
  8
0
  6
Continuous
 62
    64
100
AcDbLine
 10
185.8504687649169
 20
31.1859571461274
 30
0.0
 11
185.8504687649169
 21
30.88595714612739
 31
0.0
  0
LINE
  5
1D4
330
1F
100
AcDbEntity
  8
0
  6
Continuous
 62
    64
100
AcDbLine
 10
185.5504687649169
 20
30.98595714612739
 30
0.0
 11
185.5504687649169
 21
28.7859571461274
 31
0.0
  0
LINE
  5
1D5
330
1F
100
AcDbEntity
  8
0
  6
Continuous
 62
     1
100
AcDbLine
 10
43.23640489425151
 20
102.2194008832039
 30
0.0
 11
46.18089126711858
 21
100.519400883204
 31
0.0
  0
LINE
  5
1D6
330
1F
100
AcDbEntity
  8
0
  6
Continuous
 62
   100
100
AcDbLine
 10
106.0276069478089
 20
76.97695310828874
 30
0.0
 11
110.0276069478089
 21
83.90515633856427
 31
0.0
  0
LINE
  5
1D7
330
1F
100
AcDbEntity
  8
0
  6
Continuous
 62
     7
100
AcDbLine
 10
241.6004687649169
 20
38.98595714613106
 30
0.0
 11
241.6004687649169
 21
37.98595714613106
 31
0.0
  0
LINE
  5
1D8
330
1F
100
AcDbEntity
  8
0
  6
Continuous
 62
   100
100
AcDbLine
 10
126.6070896197135
 20
74.62166268951023
 30
0.0
 11
127.2133074023654
 21
74.27166268950859
 31
0.0
  0
LINE
  5
1D9
330
1F
100
AcDbEntity
  8
0
  6
Continuous
 62
     3
100
AcDbLine
 10
56.90140489425151
 20
125.8878751686328
 30
0.0
 11
55.6014048942515
 21
123.6362091187932
 31
0.0
  0
LINE
  5
1DA
330
1F
100
AcDbEntity
  8
0
  6
Continuous
 62
     3
100
AcDbLine
 10
60.91992838312652
 20
93.84816202277327
 30
0.0
 11
59.34390026804808
 21
91.11840125330039
 31
0.0
  0
LINE
  5
1DB
330
1F
100
AcDbEntity
  8
0
  6
Continuous
 62
     3
100
AcDbLine
 10
73.6718413265971
 20
113.9351231345595
 30
0.0
 11
75.30492567183249
 21
116.7637081935526
 31
0.0
  0
LINE
  5
1DC
330
1F
100
AcDbEntity
  8
0
  6
Continuous
 62
     3
100
AcDbLine
 10
61.88159264691272
 20
96.1138133874743
 30
0.0
 11
71.38159264691274
 21
112.5682960593787
 31
0.0
  0
LINE
  5
1DD
330
1F
100
AcDbEntity
  8
0
  6
CENTER
 62
     1
100
AcDbLine
 10
65.37345107561671
 20
97.56188959882724
 30
0.0
 11
71.4356289021078
 21
94.06188959882724
 31
0.0
  0
LINE
  5
1DE
330
1F
100
AcDbEntity
  8
0
  6
CENTER
 62
     1
100
AcDbLine
 10
76.6545399888622
 20
110.1013087612704
 30
0.0
 11
73.15453998886221
 21
104.0391309347794
 31
0.0
  0
LINE
  5
1DF
330
1F
100
AcDbEntity
  8
0
  6
Continuous
 62
     3
100
AcDbLine
 10
59.34390026804815
 20
91.11840125330036
 30
0.0
 11
60.20992567183259
 21
90.61840125330036
 31
0.0
  0
LINE
  5
1E0
330
1F
100
AcDbEntity
  8
0
  6
Continuous
 62
     3
100
AcDbLine
 10
67.19713270600079
 20
95.48836579244949
 30
0.0
 11
69.61194727172341
 21
96.13541340520564
 31
0.0
  0
LINE
  5
1E1
330
1F
100
AcDbEntity
  8
0
  6
Continuous
 62
     3
100
AcDbLine
 10
74.38890026804808
 20
117.1771056531741
 30
0.0
 11
73.95588756615585
 21
117.4271056531741
 31
0.0
  0
LINE
  5
1E2
330
1F
100
AcDbEntity
  8
0
  6
Continuous
 62
     3
100
AcDbLine
 10
70.9545399888625
 20
97.28413278526118
 30
0.0
 11
68.4045399888625
 21
98.75637597169472
 31
0.0
  0
LINE
  5
1E3
330
1F
100
AcDbEntity
  8
0
  6
Continuous
 62
     3
100
AcDbLine
 10
50.62326239771505
 20
102.6138133874743
 30
0.0
 11
61.88159264691273
 21
96.11381338747428
 31
0.0
  0
LINE
  5
1E4
330
1F
100
AcDbEntity
  8
0
  6
Continuous
 62
     3
100
AcDbLine
 10
60.123262397715
 20
119.0682960593787
 30
0.0
 11
50.62326239771499
 21
102.6138133874743
 31
0.0
  0
LINE
  5
1E5
330
1F
100
AcDbEntity
  8
0
  6
Continuous
 62
     3
100
AcDbLine
 10
71.38159264691271
 20
112.5682960593787
 30
0.0
 11
60.12326239771503
 21
119.0682960593787
 31
0.0
  0
LINE
  5
1E6
330
1F
100
AcDbEntity
  8
0
  6
Continuous
 62
     3
100
AcDbLine
 10
75.18081943049131
 20
85.54874987801327
 30
0.0
 11
80.90595279532337
 21
83.46497174601014
 31
0.0
  0
LINE
  5
1E7
330
1F
100
AcDbEntity
  8
0
  6
Continuous
 62
     3
100
AcDbLine
 10
80.90595279532339
 20
83.4649717460101
 30
0.0
 11
91.84799091107254
 21
102.4171377008429
 31
0.0
  0
LINE
  5
1E8
330
1F
100
AcDbEntity
  8
0
  6
Continuous
 62
     3
100
AcDbLine
 10
74.9045399888625
 20
104.1257334751582
 30
0.0
 11
72.3545399888625
 21
105.5979766615918
 31
0.0
  0
LINE
  5
1E9
330
1F
100
AcDbEntity
  8
0
  6
Continuous
 62
     3
100
AcDbLine
 10
75.47716885826607
 20
113.6620421437131
 30
0.0
 11
75.15364505188789
 21
114.8694494265743
 31
0.0
  0
LINE
  5
1EA
330
1F
100
AcDbEntity
  8
0
  6
Continuous
 62
     3
100
AcDbLine
 10
55.60140489425152
 20
123.6362091187932
 30
0.0
 11
58.54589126711859
 21
121.9362091187932
 31
0.0
  0
LINE
  5
1EB
330
1F
100
AcDbEntity
  8
0
  6
Continuous
 62
     3
100
AcDbLine
 10
91.8479909110726
 20
102.4171377008429
 30
0.0
 11
87.18081943049137
 21
106.3333595688398
 31
0.0
  0
LINE
  5
1EC
330
1F
100
AcDbEntity
  8
0
  6
Continuous
 62
     3
100
AcDbLine
 10
74.42251748356642
 20
113.379449159566
 30
0.0
 11
75.47716885826604
 21
113.6620421437131
 31
0.0
  0
LINE
  5
1ED
330
1F
100
AcDbEntity
  8
0
  6
Continuous
 62
     3
100
AcDbLine
 10
82.86367462741343
 20
107.1310405746927
 30
0.0
 11
72.45838756615585
 21
114.8333595688397
 31
0.0
  0
LINE
  5
1EE
330
1F
100
AcDbEntity
  8
0
  6
Continuous
 62
     3
100
AcDbLine
 10
72.45838756615582
 20
114.8333595688398
 30
0.0
 11
74.5083875661558
 21
118.3840637243559
 31
0.0
  0
LINE
  5
1EF
330
1F
100
AcDbEntity
  8
0
  6
Continuous
 62
     3
100
AcDbLine
 10
74.50838756615586
 20
118.384063724356
 30
0.0
 11
60.99839126711862
 21
126.184063724356
 31
0.0
  0
LINE
  5
1F0
330
1F
100
AcDbEntity
  8
0
  6
Continuous
 62
     3
100
AcDbLine
 10
68.72806379524027
 20
94.60448231596627
 30
0.0
 11
68.08101618248389
 21
97.0192968816888
 31
0.0
  0
LINE
  5
1F1
330
1F
100
AcDbEntity
  8
0
  6
CENTER
 62
     1
100
AcDbLine
 10
70.1545399888622
 20
98.84297851207278
 30
0.0
 11
66.6545399888622
 21
92.78080068558171
 31
0.0
  0
LINE
  5
1F2
330
1F
100
AcDbEntity
  8
0
  6
Continuous
 62
    51
100
AcDbLine
 10
136.2504687649125
 20
58.71948532563781
 30
0.0
 11
138.8485449762659
 21
57.21948532563781
 31
0.0
  0
LINE
  5
1F3
330
1F
100
AcDbEntity
  8
0
  6
Continuous
 62
   100
100
AcDbLine
 10
247.6004687649169
 20
66.98595714613117
 30
0.0
 11
247.6004687649169
 21
28.98595714613113
 31
0.0
  0
LINE
  5
1F4
330
1F
100
AcDbEntity
  8
0
  6
Continuous
 62
   100
100
AcDbLine
 10
122.3570896197135
 20
67.26044675734249
 30
0.0
 11
122.9633074023654
 21
66.91044675734085
 31
0.0
  0
LINE
  5
1F5
330
1F
100
AcDbEntity
  8
0
  6
Continuous
 62
   100
100
AcDbLine
 10
122.3570896197132
 20
67.26044675734263
 30
0.0
 11
126.6070896197132
 21
74.62166268951039
 31
0.0
  0
LINE
  5
1F6
330
1F
100
AcDbEntity
  8
0
  6
Continuous
 62
   100
100
AcDbLine
 10
110.607733966731
 20
74.90996581018098
 30
0.0
 11
114.107733966731
 21
80.97214363667206
 31
0.0
  0
LINE
  5
1F7
330
1F
100
AcDbEntity
  8
0
  6
Continuous
 62
    51
100
AcDbLine
 10
138.6985449762658
 20
56.95967770450239
 30
0.0
 11
143.6985449762658
 21
65.61993174234678
 31
0.0
  0
LINE
  5
1F8
330
1F
100
AcDbEntity
  8
0
  6
Continuous
 62
    51
100
AcDbLine
 10
140.9504687649125
 20
66.86012412121153
 30
0.0
 11
143.5485449762658
 21
65.36012412121153
 31
0.0
  0
LINE
  5
1F9
330
1F
100
AcDbEntity
  8
0
  6
Continuous
 62
    51
100
AcDbLine
 10
136.9664941686969
 20
57.95967770450236
 30
0.0
 11
141.9664941686969
 21
66.61993174234678
 31
0.0
  0
LINE
  5
1FA
330
1F
100
AcDbEntity
  8
0
  6
Continuous
 62
    51
100
AcDbLine
 10
136.9664941686969
 20
57.95967770450238
 30
0.0
 11
138.6985449762658
 21
56.95967770450237
 31
0.0
  0
LINE
  5
1FB
330
1F
100
AcDbEntity
  8
0
  6
Continuous
 62
   100
100
AcDbLine
 10
112.3577339667314
 20
77.94105472342633
 30
0.0
 11
124.4820896197135
 21
70.94105472342636
 31
0.0
  0
LINE
  5
1FC
330
1F
100
AcDbEntity
  8
0
  6
Continuous
 62
   151
100
AcDbLine
 10
241.6004687649169
 20
29.98595714613115
 30
0.0
 11
244.6004687649169
 21
29.98595714613115
 31
0.0
  0
LINE
  5
1FD
330
1F
100
AcDbEntity
  8
0
  6
Continuous
 62
   100
100
AcDbLine
 10
247.4004687649169
 20
66.98595714613117
 30
0.0
 11
247.6004687649169
 21
66.98595714613117
 31
0.0
  0
LINE
  5
1FE
330
1F
100
AcDbEntity
  8
0
  6
Continuous
 62
   151
100
AcDbLine
 10
241.6004687649169
 20
31.98595714613106
 30
0.0
 11
244.6004687649169
 21
31.98595714613106
 31
0.0
  0
LINE
  5
1FF
330
1F
100
AcDbEntity
  8
0
  6
Continuous
 62
   100
100
AcDbLine
 10
247.4004687649169
 20
28.98595714613113
 30
0.0
 11
247.6004687649169
 21
28.98595714613113
 31
0.0
  0
LINE
  5
200
330
1F
100
AcDbEntity
  8
0
  6
Continuous
 62
   100
100
AcDbLine
 10
137.6004687649169
 20
28.98595714613117
 30
0.0
 11
183.6004687649169
 21
28.98595714613117
 31
0.0
  0
LINE
  5
201
330
1F
100
AcDbEntity
  8
0
  6
Continuous
 62
   100
100
AcDbLine
 10
184.600468764917
 20
29.98595714613111
 30
0.0
 11
183.600468764917
 21
28.9859571461311
 31
0.0
  0
LINE
  5
202
330
1F
100
AcDbEntity
  8
0
  6
Continuous
 62
    51
100
AcDbLine
 10
141.9664941686969
 20
66.61993174234678
 30
0.0
 11
143.6985449762658
 21
65.61993174234678
 31
0.0
  0
LINE
  5
203
330
1F
100
AcDbEntity
  8
0
  6
Continuous
 62
     7
100
AcDbLine
 10
229.6004687649169
 20
30.98595714613104
 30
0.0
 11
229.6004687649169
 21
29.98595714613104
 31
0.0
  0
LINE
  5
204
330
1F
100
AcDbEntity
  8
0
  6
Continuous
 62
     7
100
AcDbLine
 10
231.6004687649169
 20
30.98595714613104
 30
0.0
 11
231.6004687649169
 21
29.98595714613104
 31
0.0
  0
LINE
  5
205
330
1F
100
AcDbEntity
  8
0
  6
Continuous
 62
     7
100
AcDbLine
 10
243.6004687649169
 20
38.98595714613106
 30
0.0
 11
243.6004687649169
 21
37.98595714613106
 31
0.0
  0
LINE
  5
206
330
1F
100
AcDbEntity
  8
0
  6
Continuous
 62
     3
100
AcDbLine
 10
60.99839126711855
 20
126.1840637243559
 30
0.0
 11
57.49839126711855
 21
120.1218858978649
 31
0.0
  0
LINE
  5
207
330
1F
100
AcDbEntity
  8
0
  6
Continuous
 62
     3
100
AcDbLine
 10
77.45453998886205
 20
108.5424630344589
 30
0.0
 11
77.45453998886205
 21
105.5979766615918
 31
0.0
  0
LINE
  5
208
330
1F
100
AcDbEntity
  8
0
  6
Continuous
 62
     3
100
AcDbLine
 10
84.37697185319794
 20
89.47695310828874
 30
0.0
 11
106.0276069478089
 21
76.97695310828874
 31
0.0
  0
LINE
  5
209
330
1F
100
AcDbEntity
  8
0
  6
CENTER
 62
     1
100
AcDbLine
 10
71.8734510756167
 20
108.8202198480249
 30
0.0
 11
77.93562890210778
 21
105.3202198480249
 31
0.0
  0
LINE
  5
20A
330
1F
100
AcDbEntity
  8
0
  6
Continuous
 62
     3
100
AcDbLine
 10
43.10640489425155
 20
101.9942342782201
 30
0.0
 11
46.05089126711862
 21
100.2942342782201
 31
0.0
  0
LINE
  5
20B
330
1F
100
AcDbEntity
  8
0
  6
Continuous
 62
     3
100
AcDbLine
 10
61.8430100170679
 20
93.44698631229343
 30
0.0
 11
60.20992567183252
 21
90.61840125330039
 31
0.0
  0
LINE
  5
20C
330
1F
100
AcDbEntity
  8
0
  6
Continuous
 62
     3
100
AcDbLine
 10
72.8628721529696
 20
114.5339474240797
 30
0.0
 11
74.43890026804806
 21
117.2637081935526
 31
0.0
  0
LINE
  5
20D
330
1F
100
AcDbEntity
  8
0
  6
Continuous
 62
     3
100
AcDbLine
 10
57.49839126711857
 20
120.1218858978649
 30
0.0
 11
55.59313537879281
 21
121.2218858978649
 31
0.0
  0
LINE
  5
20E
330
1F
100
AcDbEntity
  8
0
  6
Continuous
 62
     3
100
AcDbLine
 10
77.45453998886245
 20
105.5979766615919
 30
0.0
 11
74.90453998886244
 21
104.1257334751583
 31
0.0
  0
LINE
  5
20F
330
1F
100
AcDbEntity
  8
0
  6
Continuous
 62
     3
100
AcDbLine
 10
55.59313537879279
 20
121.2218858978649
 30
0.0
 11
46.4931353787928
 21
105.4602235489881
 31
0.0
  0
LINE
  5
210
330
1F
100
AcDbEntity
  8
0
  6
Continuous
 62
     3
100
AcDbLine
 10
48.39839126711855
 20
104.3602235489881
 30
0.0
 11
44.89839126711855
 21
98.29804572249701
 31
0.0
  0
LINE
  5
211
330
1F
100
AcDbEntity
  8
0
  6
Continuous
 62
     3
100
AcDbLine
 10
73.69713270600084
 20
106.7466960416473
 30
0.0
 11
76.11194727172347
 21
107.3937436544034
 31
0.0
  0
LINE
  5
212
330
1F
100
AcDbEntity
  8
0
  6
Continuous
 62
     3
100
AcDbLine
 10
58.40838756615583
 20
90.49804572249703
 30
0.0
 11
60.45838756615584
 21
94.04874987801324
 31
0.0
  0
LINE
  5
213
330
1F
100
AcDbEntity
  8
0
  6
Continuous
 62
     3
100
AcDbLine
 10
75.22806379524032
 20
105.8628125651639
 30
0.0
 11
74.58101618248392
 21
108.2776271308865
 31
0.0
  0
LINE
  5
214
330
1F
100
AcDbEntity
  8
0
  6
Continuous
 62
     3
100
AcDbLine
 10
59.84589126711862
 20
124.1878751686328
 30
0.0
 11
56.90140489425156
 21
125.8878751686328
 31
0.0
  0
LINE
  5
215
330
1F
100
AcDbEntity
  8
0
  6
Continuous
 62
     3
100
AcDbLine
 10
60.38492567183255
 20
90.9215101446249
 30
0.0
 11
60.98572740856101
 21
90.57463710019513
 31
0.0
  0
LINE
  5
216
330
1F
100
AcDbEntity
  8
0
  6
Continuous
 62
     3
100
AcDbLine
 10
75.30492567183252
 20
116.7637081935526
 30
0.0
 11
74.43890026804809
 21
117.2637081935526
 31
0.0
  0
LINE
  5
217
330
1F
100
AcDbEntity
  8
0
  6
Continuous
 62
     1
100
AcDbLine
 10
59.71589126711848
 20
123.9627085636487
 30
0.0
 11
56.77140489425141
 21
125.6627085636487
 31
0.0
  0
LINE
  5
218
330
1F
100
AcDbEntity
  8
0
  6
Continuous
 62
     3
100
AcDbLine
 10
58.96088756615587
 20
91.45500379367878
 30
0.0
 11
59.39390026804809
 21
91.20500379367878
 31
0.0
  0
LINE
  5
219
330
1F
100
AcDbEntity
  8
0
  6
Continuous
 62
     7
100
AcDbLine
 10
185.6004687649125
 20
27.98595714613114
 30
0.0
 11
187.1004687649125
 21
27.98595714613114
 31
0.0
  0
LINE
  5
21A
330
1F
100
AcDbEntity
  8
0
  6
Continuous
 62
     3
100
AcDbLine
 10
60.45838756615588
 20
94.04874987801323
 30
0.0
 11
72.33143501376735
 21
88.88866644636813
 31
0.0
  0
LINE
  5
21B
330
1F
100
AcDbEntity
  8
0
  6
Continuous
 62
     3
100
AcDbLine
 10
47.35089126711863
 20
102.5459003280597
 30
0.0
 11
44.40640489425155
 21
104.2459003280597
 31
0.0
  0
LINE
  5
21C
330
1F
100
AcDbEntity
  8
0
  6
Continuous
 62
   100
100
AcDbLine
 10
137.6004687649169
 20
28.9859571461312
 30
0.0
 11
136.600468764917
 21
29.98595714613118
 31
0.0
  0
LINE
  5
21D
330
1F
100
AcDbEntity
  8
0
  6
Continuous
 62
   100
100
AcDbLine
 10
184.6004687649169
 20
65.98595714613116
 30
0.0
 11
184.6004687649169
 21
29.98595714613117
 31
0.0
  0
LINE
  5
21E
330
1F
100
AcDbEntity
  8
0
  6
Continuous
 62
     3
100
AcDbLine
 10
72.35453998886248
 20
108.5424630344588
 30
0.0
 11
74.90453998886248
 21
110.0147062208924
 31
0.0
  0
LINE
  5
21F
330
1F
100
AcDbEntity
  8
0
  6
Continuous
 62
     3
100
AcDbLine
 10
72.35453998886211
 20
105.5979766615918
 30
0.0
 11
72.35453998886211
 21
108.5424630344588
 31
0.0
  0
LINE
  5
220
330
1F
100
AcDbEntity
  8
0
  6
Continuous
 62
     3
100
AcDbLine
 10
70.9545399888624
 20
94.3396464123941
 30
0.0
 11
70.9545399888624
 21
97.28413278526119
 31
0.0
  0
LINE
  5
221
330
1F
100
AcDbEntity
  8
0
  6
Continuous
 62
     3
100
AcDbLine
 10
68.4045399888625
 20
92.8674032259606
 30
0.0
 11
70.95453998886246
 21
94.33964641239413
 31
0.0
  0
LINE
  5
222
330
1F
100
AcDbEntity
  8
0
  6
Continuous
 62
     3
100
AcDbLine
 10
44.89839126711863
 20
98.298045722497
 30
0.0
 11
58.40838756615589
 21
90.49804572249698
 31
0.0
  0
LINE
  5
223
330
1F
100
AcDbEntity
  8
0
  6
Continuous
 62
     3
100
AcDbLine
 10
65.85453998886251
 20
94.33964641239406
 30
0.0
 11
68.40453998886251
 21
92.86740322596052
 31
0.0
  0
LINE
  5
224
330
1F
100
AcDbEntity
  8
0
  6
CENTER
 62
     1
100
AcDbLine
 10
77.30882259192927
 20
112.6045363675204
 30
0.0
 11
53.70641525032303
 21
126.23139259972
 31
0.0
  0
LINE
  5
225
330
1F
100
AcDbEntity
  8
0
  6
Continuous
 62
     3
100
AcDbLine
 10
74.9045399888625
 20
110.0147062208924
 30
0.0
 11
77.45453998886249
 21
108.5424630344588
 31
0.0
  0
LINE
  5
226
330
1F
100
AcDbEntity
  8
0
  6
Continuous
 62
     4
100
AcDbLine
 10
187.1004687649125
 20
29.98595714613114
 30
0.0
 11
190.9004687649125
 21
29.98595714613114
 31
0.0
  0
LINE
  5
227
330
1F
100
AcDbEntity
  8
0
  6
Continuous
 62
     1
100
AcDbLine
 10
47.22089126711854
 20
102.3207337230755
 30
0.0
 11
44.27640489425147
 21
104.0207337230755
 31
0.0
  0
LINE
  5
228
330
1F
100
AcDbEntity
  8
0
  6
Continuous
 62
     7
100
AcDbLine
 10
187.1004687649125
 20
41.98595714613114
 30
0.0
 11
187.1004687649125
 21
27.98595714613114
 31
0.0
  0
LINE
  5
229
330
1F
100
AcDbEntity
  8
0
  6
Continuous
 62
     7
100
AcDbLine
 10
185.6004687649125
 20
41.98595714613114
 30
0.0
 11
187.1004687649125
 21
41.98595714613114
 31
0.0
  0
LINE
  5
22A
330
1F
100
AcDbEntity
  8
0
  6
Continuous
 62
     4
100
AcDbLine
 10
190.9004687649125
 20
39.98595714613114
 30
0.0
 11
190.9004687649125
 21
29.98595714613114
 31
0.0
  0
LINE
  5
22B
330
1F
100
AcDbEntity
  8
0
  6
Continuous
 62
     3
100
AcDbLine
 10
43.10640489425151
 20
101.9942342782201
 30
0.0
 11
44.40640489425151
 21
104.2459003280597
 31
0.0
  0
LINE
  5
22C
330
1F
100
AcDbEntity
  8
0
  6
Continuous
 62
    23
100
AcDbLine
 10
240.1004687649169
 20
29.98595714613117
 30
0.0
 11
241.6004687649169
 21
29.98595714613117
 31
0.0
  0
LINE
  5
22D
330
1F
100
AcDbEntity
  8
0
  6
Continuous
 62
     4
100
AcDbLine
 10
187.1004687649125
 20
39.98595714613114
 30
0.0
 11
190.9004687649125
 21
39.98595714613114
 31
0.0
  0
LINE
  5
22E
330
1F
100
AcDbEntity
  8
0
  6
CENTER
 62
     1
100
AcDbLine
 10
64.8138225919293
 20
90.96256152694727
 30
0.0
 11
41.21141525032304
 21
104.5894177591468
 31
0.0
  0
LINE
  5
22F
330
1F
100
AcDbEntity
  8
0
  6
CENTER
 62
     1
100
AcDbLine
 10
45.27385908073447
 20
116.6719479471398
 30
0.0
 11
91.00025833532709
 21
90.27179902842848
 31
0.0
  0
LINE
  5
230
330
1F
100
AcDbEntity
  8
0
  6
Continuous
 62
   100
100
AcDbLine
 10
84.37697185319794
 20
89.47695310828874
 30
0.0
 11
88.37697185319794
 21
96.40515633856424
 31
0.0
  0
LINE
  5
231
330
1F
100
AcDbEntity
  8
0
  6
Continuous
 62
     7
100
AcDbLine
 10
228.6004687649169
 20
41.98595714613104
 30
0.0
 11
244.6004687649169
 21
41.98595714613104
 31
0.0
  0
LINE
  5
232
330
1F
100
AcDbEntity
  8
0
  6
Continuous
 62
     7
100
AcDbLine
 10
228.6004687649169
 20
41.98595714613104
 30
0.0
 11
228.6004687649169
 21
27.98595714613104
 31
0.0
  0
LINE
  5
233
330
1F
100
AcDbEntity
  8
0
  6
Continuous
 62
     7
100
AcDbLine
 10
228.6004687649169
 20
27.98595714613104
 30
0.0
 11
244.6004687649169
 21
27.98595714613104
 31
0.0
  0
LINE
  5
234
330
1F
100
AcDbEntity
  8
0
  6
Continuous
 62
     7
100
AcDbLine
 10
244.6004687649169
 20
41.98595714613104
 30
0.0
 11
244.6004687649169
 21
27.98595714613104
 31
0.0
  0
LINE
  5
235
330
1F
100
AcDbEntity
  8
0
  6
Continuous
 62
     1
100
AcDbLine
 10
55.73140489425149
 20
123.8613757237771
 30
0.0
 11
58.67589126711856
 21
122.1613757237771
 31
0.0
  0
LINE
  5
236
330
1F
100
AcDbEntity
  8
0
  6
Continuous
 62
     3
100
AcDbLine
 10
62.98216885826602
 20
92.02006730313994
 30
0.0
 11
62.69957587411886
 21
93.07471867783944
 31
0.0
  0
LINE
  5
237
330
1F
100
AcDbEntity
  8
0
  6
Continuous
 62
     3
100
AcDbLine
 10
88.37697185319796
 20
96.40515633856423
 30
0.0
 11
110.0276069478089
 21
83.90515633856424
 31
0.0
  0
ARC
  5
238
330
1F
100
AcDbEntity
  8
0
  6
Continuous
 62
     3
100
AcDbCircle
 10
57.78601643555945
 20
95.02006730313991
 30
0.0
 40
6.0
100
AcDbArc
 50
313.8086483613833
 51
338.1751914374919
  0
CIRCLE
  5
239
330
1F
100
AcDbEntity
  8
0
  6
Continuous
 62
     3
100
AcDbCircle
 10
74.90453998886247
 20
107.0702198480253
 30
0.0
 40
2.25
  0
CIRCLE
  5
23A
330
1F
100
AcDbEntity
  8
0
  6
DASHED
 62
   100
100
AcDbCircle
 10
149.6004687649125
 20
63.98595714613118
 30
0.0
 40
1.5
  0
ARC
  5
23B
330
1F
100
AcDbEntity
  8
0
  6
Continuous
 62
     3
100
AcDbCircle
 10
70.33849021127807
 20
84.3030180719034
 30
0.0
 40
4.999999999999984
100
AcDbArc
 50
14.4270040008057
 51
66.51000282237419
  0
ARC
  5
23C
330
1F
100
AcDbEntity
  8
0
  6
Continuous
 62
     3
100
AcDbCircle
 10
75.33072740856099
 20
115.4209059347708
 30
0.0
 40
0.8
100
AcDbArc
 50
346.1913516386165
 51
59.99999999999999
  0
ARC
  5
23D
330
1F
100
AcDbEntity
  8
0
  6
Continuous
 62
     3
100
AcDbCircle
 10
85.83849021127807
 20
111.149805589221
 30
0.0
 40
5.00000000000001
100
AcDbArc
 50
233.4899971776273
 51
285.5729959991942
  0
ARC
  5
23E
330
1F
100
AcDbEntity
  8
0
  6
Continuous
 62
     7
100
AcDbCircle
 10
230.6004687649169
 20
29.98595714613104
 30
0.0
 40
0.9999999999999999
100
AcDbArc
 50
180.0
 51
0.0
  0
ARC
  5
23F
330
1F
100
AcDbEntity
  8
0
  6
Continuous
 62
     7
100
AcDbCircle
 10
242.6004687649169
 20
38.98595714613106
 30
0.0
 40
0.9999999999999999
100
AcDbArc
 50
0.0
 51
180.0
  0
ARC
  5
240
330
1F
100
AcDbEntity
  8
0
  6
Continuous
 62
     7
100
AcDbCircle
 10
242.6004687649169
 20
37.98595714613106
 30
0.0
 40
0.9999999999999999
100
AcDbArc
 50
180.0
 51
0.0
  0
ARC
  5
241
330
1F
100
AcDbEntity
  8
0
  6
Continuous
 62
     7
100
AcDbCircle
 10
230.6004687649169
 20
30.98595714613104
 30
0.0
 40
0.9999999999999999
100
AcDbArc
 50
0.0
 51
180.0
  0
ARC
  5
242
330
1F
100
AcDbEntity
  8
0
  6
Continuous
 62
     3
100
AcDbCircle
 10
70.28101643555945
 20
116.662042143713
 30
0.0
 40
6.0
100
AcDbArc
 50
321.8248085625077
 51
346.1913516386165
  0
ARC
  5
243
330
1F
100
AcDbEntity
  8
0
  6
Continuous
 62
   100
100
AcDbCircle
 10
144.7551693032962
 20
64.98595714613117
 30
0.0
 40
2.0
100
AcDbArc
 50
90.00000000000001
 51
150.0000000000001
  0
CIRCLE
  5
244
330
1F
100
AcDbEntity
  8
0
  6
Continuous
 62
   100
100
AcDbCircle
 10
246.1004687649169
 20
52.98595714613589
 30
0.0
 40
0.8
  0
CIRCLE
  5
245
330
1F
100
AcDbEntity
  8
0
  6
DASHED
 62
   100
100
AcDbCircle
 10
246.1004687649169
 20
42.98595714613589
 30
0.0
 40
0.6000000000000001
  0
CIRCLE
  5
246
330
1F
100
AcDbEntity
  8
0
  6
DASHED
 62
   100
100
AcDbCircle
 10
181.6004687649125
 20
63.98595714613118
 30
0.0
 40
1.5
  0
CIRCLE
  5
247
330
1F
100
AcDbEntity
  8
0
  6
DASHED
 62
   100
100
AcDbCircle
 10
165.6004687649125
 20
31.98595714613118
 30
0.0
 40
1.5
  0
ARC
  5
248
330
1F
100
AcDbEntity
  8
0
  6
Continuous
 62
     3
100
AcDbCircle
 10
61.38572740856097
 20
91.26745742322271
 30
0.0
 40
0.8
100
AcDbArc
 50
240.0
 51
313.8086483613833
  0
CIRCLE
  5
249
330
1F
100
AcDbEntity
  8
0
  6
Continuous
 62
     7
100
AcDbCircle
 10
236.6004687649169
 20
34.98595714613104
 30
0.0
 40
5.05
  0
CIRCLE
  5
24A
330
1F
100
AcDbEntity
  8
0
  6
Continuous
 62
   100
100
AcDbCircle
 10
246.1004687649169
 20
52.98595714613589
 30
0.0
 40
0.6000000000000001
  0
CIRCLE
  5
24B
330
1F
100
AcDbEntity
  8
0
  6
DASHED
 62
   100
100
AcDbCircle
 10
246.1004687649169
 20
42.98595714613589
 30
0.0
 40
0.8
  0
CIRCLE
  5
24C
330
1F
100
AcDbEntity
  8
0
  6
DASHED
 62
   100
100
AcDbCircle
 10
149.6004687649125
 20
63.98595714613118
 30
0.0
 40
1.0
  0
CIRCLE
  5
24D
330
1F
100
AcDbEntity
  8
0
  6
DASHED
 62
   100
100
AcDbCircle
 10
181.6004687649125
 20
63.98595714613118
 30
0.0
 40
1.0
  0
CIRCLE
  5
24E
330
1F
100
AcDbEntity
  8
0
  6
DASHED
 62
   100
100
AcDbCircle
 10
165.6004687649125
 20
31.98595714613118
 30
0.0
 40
1.0
  0
CIRCLE
  5
24F
330
1F
100
AcDbEntity
  8
0
  6
Continuous
 62
     3
100
AcDbCircle
 10
68.4045399888625
 20
95.81188959882763
 30
0.0
 40
2.250000000000014
  0
CIRCLE
  5
250
330
1F
100
AcDbEntity
  8
0
  6
Continuous
 62
     3
100
AcDbCircle
 10
165.6004687649125
 20
63.98595714613118
 30
0.0
 40
1.8
  0
CIRCLE
  5
251
330
1F
100
AcDbEntity
  8
0
  6
Continuous
 62
     3
100
AcDbCircle
 10
149.6004687649125
 20
31.98595714613117
 30
0.0
 40
1.8
  0
LWPOLYLINE
  5
252
330
1F
100
AcDbEntity
  8
0
  6
CENTER
 62
     4
100
AcDbPolyline
 90
        2
 70
     0
 43
0.0
 10
60.02569762866841
 20
108.1549699904483
 10
138.3384960802642
 20
62.94105472342653
  0
ELLIPSE
  5
253
330
1F
100
AcDbEntity
  8
0
  6
Continuous
 62
     7
100
AcDbEllipse
 10
238.6004687649169
 20
63.68980472342452
 30
0.0
 11
6.0
 21
0.0
 31
0.0
210
0.0
220
0.0
230
1.0
 40
0.866025403784439
 41
0.9733857048559362
 42
2.168206948733862
  0
MTEXT
  5
254
330
1F
100
AcDbEntity
  8
0
 62
     7
100
AcDbMText
 10
149.484305183578
 20
97.60631692526484
 30
0.0
 40
3.0
 41
0.0
 71
     7
 72
     1
  1
{\W0.833333;必ずネジ2.8mm以下の事}
 73
     1
 44
1.0
  0
MTEXT
  5
255
330
1F
100
AcDbEntity
  8
0
 62
     7
100
AcDbMText
 10
73.67056330380034
 20
130.7004785415128
 30
0.0
 40
9.0
 41
0.0
 71
     7
 72
     1
  1
{\W0.833333;HAWK-203NはUSB}
 73
     1
 44
1.0
  0
INSERT
  5
256
330
1F
100
AcDbEntity
  8
0
 62
     7
100
AcDbBlockReference
  2
DTL0001
 10
149.6004687649125
 20
31.98595714613117
 30
0.0
  0
INSERT
  5
257
330
1F
100
AcDbEntity
  8
0
 62
   131
100
AcDbBlockReference
  2
DTL0002
 10
138.6004687649125
 20
62.78980472342456
 30
0.0
 50
150.0000000000001
  0
INSERT
  5
258
330
1F
100
AcDbEntity
  8
0
 62
     4
100
AcDbBlockReference
  2
DTL0003
 10
236.6004687649169
 20
34.98595714613104
 30
0.0
  0
INSERT
  5
259
330
1F
100
AcDbEntity
  8
0
 62
    51
100
AcDbBlockReference
  2
DTL0004
 10
236.6004687649169
 20
34.98595714613104
 30
0.0
  0
INSERT
  5
260
330
1F
100
AcDbEntity
  8
0
 62
     7
100
AcDbBlockReference
  2
DIM0001
 10
148.7377790095302
 20
30.40615766962841
 30
0.0
  0
DIMENSION
  5
263
330
1F
100
AcDbEntity
  8
0
 62
     7
100
AcDbDimension
  2
*D7
 10
247.6004687649169
 20
78.73482690156825
 30
0.0
 11
243.1014687649169
 21
78.73482690156825
 31
0.0
 70
   160
 71
     5
 42
8.999999999999998
  3
ISO-25
100
AcDbAlignedDimension
 13
238.6004687649169
 23
67.98595714613595
 33
0.0
 14
247.6004687649169
 24
78.73382690156825
 34
0.0
 50
180.0
100
AcDbRotatedDimension
1001
ACAD
1000
DSTYLE
1002
{
1070
   278
1070
    46
1070
   147
1040
1.0
1070
    77
1070
     1
1070
    74
1070
     0
1070
    73
1070
     0
1070
    42
1040
2.54
1070
    44
1040
3.0
1070
    76
1070
     1
1070
    75
1070
     0
1070
   279
1070
     0
1070
   271
1070
     0
1070
   144
1040
1.0
1070
   173
1070
     1
1070
    41
1040
3.114
1070
   140
1040
4.0
1070
   344
1005
264
1070
   343
1005
264
1002
}
  0
DIMENSION
  5
276
330
1F
100
AcDbEntity
  8
0
 62
     7
100
AcDbDimension
  2
*D8
 10
135.6004687649125
 20
16.37174044813024
 30
0.0
 11
160.6014687649125
 21
16.37174044813024
 31
0.0
 70
   160
 71
     5
 42
49.99999999999997
  3
ISO-25
100
AcDbAlignedDimension
 13
185.6004687649125
 23
27.98595714613114
 33
0.0
 14
135.6004687649125
 24
27.98595714613114
 34
0.0
100
AcDbRotatedDimension
1001
ACAD
1000
DSTYLE
1002
{
1070
   278
1070
    46
1070
   147
1040
1.0
1070
    77
1070
     1
1070
    74
1070
     0
1070
    73
1070
     0
1070
    42
1040
2.54
1070
    44
1040
2.0
1070
    76
1070
     0
1070
    75
1070
     1
1070
   279
1070
     0
1070
   271
1070
     0
1070
   144
1040
1.0
1070
   173
1070
     1
1070
    41
1040
3.114
1070
   140
1040
4.0
1070
   344
1005
264
1070
   343
1005
264
1002
}
  0
DIMENSION
  5
282
330
1F
100
AcDbEntity
  8
0
 62
     7
100
AcDbDimension
  2
*D9
 10
165.6004687649125
 20
78.73482690156825
 30
0.0
 11
157.6014687649125
 21
78.73482690156825
 31
0.0
 70
   160
 71
     5
 42
15.99999999999999
  3
ISO-25
100
AcDbAlignedDimension
 13
149.6004687649125
 23
31.98595714613117
 33
0.0
 14
165.6004687649125
 24
78.73382690156825
 34
0.0
 50
180.0
100
AcDbRotatedDimension
1001
ACAD
1000
DSTYLE
1002
{
1070
   278
1070
    46
1070
   147
1040
1.0
1070
    77
1070
     1
1070
    74
1070
     0
1070
    73
1070
     0
1070
    42
1040
2.54
1070
    44
1040
3.0
1070
    76
1070
     1
1070
    75
1070
     0
1070
   279
1070
     0
1070
   271
1070
     0
1070
   144
1040
1.0
1070
   173
1070
     1
1070
    41
1040
3.114
1070
   140
1040
4.0
1070
   344
1005
264
1070
   343
1005
264
1002
}
  0
INSERT
  5
294
330
1F
100
AcDbEntity
  8
0
 62
     7
100
AcDbBlockReference
  2
DIM0002
 10
182.2729336672805
 20
65.32677441745615
 30
0.0
  0
DIMENSION
  5
297
330
1F
100
AcDbEntity
  8
0
 62
     7
100
AcDbDimension
  2
*D11
 10
181.6004687649125
 20
78.73482690156825
 30
0.0
 11
173.6014687649125
 21
78.73482690156825
 31
0.0
 70
   160
 71
     5
 42
15.99999999999999
  3
ISO-25
100
AcDbAlignedDimension
 13
165.6004687649125
 23
31.98595714613118
 33
0.0
 14
181.6004687649125
 24
78.73382690156825
 34
0.0
 50
180.0
100
AcDbRotatedDimension
1001
ACAD
1000
DSTYLE
1002
{
1070
   278
1070
    46
1070
   147
1040
1.0
1070
    77
1070
     1
1070
    74
1070
     0
1070
    73
1070
     0
1070
    42
1040
2.54
1070
    44
1040
3.0
1070
    76
1070
     1
1070
    75
1070
     0
1070
   279
1070
     0
1070
   271
1070
     0
1070
   144
1040
1.0
1070
   173
1070
     1
1070
    41
1040
3.114
1070
   140
1040
4.0
1070
   344
1005
264
1070
   343
1005
264
1002
}
  0
DIMENSION
  5
2A3
330
1F
100
AcDbEntity
  8
0
 62
     7
100
AcDbDimension
  2
*D12
 10
190.9004687649125
 20
16.37174044813024
 30
0.0
 11
202.3189449553887
 21
16.37174044813024
 31
0.0
 70
   160
 71
     5
 42
5.299999999999984
  3
ISO-25
100
AcDbAlignedDimension
 13
185.6004687649125
 23
27.98595714613114
 33
0.0
 14
190.9004687649125
 24
29.98595714613114
 34
0.0
 50
180.0
100
AcDbRotatedDimension
1001
ACAD
1000
DSTYLE
1002
{
1070
   278
1070
    46
1070
   147
1040
1.0
1070
    77
1070
     1
1070
    74
1070
     0
1070
    73
1070
     0
1070
    42
1040
2.54
1070
    44
1040
2.0
1070
    76
1070
     0
1070
    75
1070
     0
1070
   279
1070
     0
1070
   271
1070
     1
1070
   144
1040
1.0
1070
   173
1070
     1
1070
    41
1040
3.114
1070
   140
1040
4.0
1070
   344
1005
264
1070
   343
1005
264
1002
}
  0
DIMENSION
  5
2B3
330
1F
100
AcDbEntity
  8
0
 62
     7
100
AcDbDimension
  2
*D13
 10
213.5123056967292
 20
27.98595714613585
 30
0.0
 11
213.5123056967292
 21
47.98695714613589
 31
0.0
 70
   160
 71
     5
 42
40.0000000000001
  3
ISO-25
100
AcDbAlignedDimension
 13
223.6004687649169
 23
67.98595714613595
 33
0.0
 14
223.6004687649169
 24
27.98595714613585
 34
0.0
 50
90.00000000000001
100
AcDbRotatedDimension
1001
ACAD
1000
DSTYLE
1002
{
1070
   278
1070
    46
1070
   147
1040
1.0
1070
    77
1070
     1
1070
    74
1070
     0
1070
    73
1070
     0
1070
    42
1040
2.54
1070
    44
1040
2.0
1070
    76
1070
     0
1070
    75
1070
     0
1070
   279
1070
     0
1070
   271
1070
     0
1070
   144
1040
1.0
1070
   173
1070
     1
1070
    41
1040
3.114
1070
   140
1040
4.0
1070
   344
1005
264
1070
   343
1005
264
1002
}
  0
DIMENSION
  5
2C0
330
1F
100
AcDbEntity
  8
0
 62
     7
100
AcDbDimension
  2
*D14
 10
247.6004687649169
 20
87.39835291443384
 30
0.0
 11
235.7381692138802
 21
87.39835291443384
 31
0.0
 70
   160
 71
     5
 42
24.0
  3
ISO-25
100
AcDbAlignedDimension
 13
223.6004687649169
 23
67.98595714613595
 33
0.0
 14
247.6004687649169
 24
66.98595714613117
 34
0.0
 50
180.0
100
AcDbRotatedDimension
1001
ACAD
1000
DSTYLE
1002
{
1070
   278
1070
    46
1070
   147
1040
1.0
1070
    77
1070
     1
1070
    74
1070
     0
1070
    73
1070
     0
1070
    42
1040
2.54
1070
    44
1040
2.0
1070
    76
1070
     0
1070
    75
1070
     0
1070
   279
1070
     0
1070
   271
1070
     0
1070
   144
1040
1.0
1070
   173
1070
     1
1070
    41
1040
3.114
1070
   140
1040
4.0
1070
   344
1005
264
1070
   343
1005
264
1002
}
  0
DIMENSION
  5
2CD
330
1F
100
AcDbEntity
  8
0
 62
     7
100
AcDbDimension
  2
*D15
 10
236.6004687649169
 20
16.37174044813024
 30
0.0
 11
242.1014687649169
 21
16.37174044813024
 31
0.0
 70
   160
 71
     5
 42
11.0
  3
ISO-25
100
AcDbAlignedDimension
 13
247.6004687649169
 23
28.98595714613113
 33
0.0
 14
236.6004687649169
 24
34.98595714613104
 34
0.0
100
AcDbRotatedDimension
1001
ACAD
1000
DSTYLE
1002
{
1070
   283
1070
     1
1070
   272
1070
     1
1070
    71
1070
     1
1070
    72
1070
     0
1070
    48
1040
0.3
1070
    47
1040
0.3
1070
   278
1070
    46
1070
   147
1040
1.0
1070
    77
1070
     1
1070
    74
1070
     0
1070
    73
1070
     0
1070
    42
1040
2.54
1070
    44
1040
2.0
1070
    76
1070
     0
1070
    75
1070
     0
1070
   279
1070
     0
1070
   271
1070
     0
1070
   144
1040
1.0
1070
   173
1070
     1
1070
    41
1040
3.114
1070
   140
1040
4.0
1070
   344
1005
264
1070
   343
1005
264
1002
}
  0
DIMENSION
  5
2DA
330
1F
100
AcDbEntity
  8
0
 62
     7
100
AcDbDimension
  2
*D16
 10
258.4956880123399
 20
34.98595714613104
 30
0.0
 11
258.4956880123399
 21
50.78538571755961
 31
0.0
 70
   160
 71
     5
 42
6.999999999995193
  3
ISO-25
100
AcDbAlignedDimension
 13
247.4004687649169
 23
27.98595714613585
 33
0.0
 14
236.6004687649169
 24
34.98595714613104
 34
0.0
 50
270.0
100
AcDbRotatedDimension
1001
ACAD
1000
DSTYLE
1002
{
1070
   283
1070
     1
1070
   272
1070
     1
1070
    71
1070
     1
1070
    72
1070
     0
1070
    48
1040
0.3
1070
    47
1040
0.3
1070
   278
1070
    46
1070
   147
1040
1.0
1070
    77
1070
     1
1070
    74
1070
     0
1070
    73
1070
     0
1070
    42
1040
2.54
1070
    44
1040
2.0
1070
    76
1070
     0
1070
    75
1070
     0
1070
   279
1070
     0
1070
   271
1070
     0
1070
   144
1040
1.0
1070
   173
1070
     1
1070
    41
1040
3.114
1070
   140
1040
4.0
1070
   344
1005
264
1070
   343
1005
264
1002
}
  0
DIMENSION
  5
2EA
330
1F
100
AcDbEntity
  8
0
 62
     7
100
AcDbDimension
  2
*D17
 10
181.6004687649125
 20
78.73382690156825
 30
0.0
 11
183.6014687649125
 21
78.73382690156825
 31
0.0
 70
   160
 71
     5
 42
3.999999999999972
  3
ISO-25
100
AcDbAlignedDimension
 13
185.6004687649125
 23
67.98595714613124
 33
0.0
 14
181.6004687649125
 24
63.98595714613118
 34
0.0
100
AcDbRotatedDimension
1001
ACAD
1000
DSTYLE
1002
{
1070
   278
1070
    46
1070
   147
1040
1.0
1070
    77
1070
     1
1070
    74
1070
     0
1070
    73
1070
     0
1070
    42
1040
2.54
1070
    44
1040
2.0
1070
    76
1070
     0
1070
    75
1070
     0
1070
   279
1070
     0
1070
   271
1070
     0
1070
   144
1040
1.0
1070
   173
1070
     1
1070
    41
1040
3.114
1070
   140
1040
4.0
1070
   344
1005
264
1070
   343
1005
264
1002
}
  0
DIMENSION
  5
2F9
330
1F
100
AcDbEntity
  8
0
 62
     7
100
AcDbDimension
  2
*D18
 10
199.973235022698
 20
31.98595714613117
 30
0.0
 11
199.973235022698
 21
29.98695714613116
 31
0.0
 70
   160
 71
     5
 42
4.000000000000023
  3
ISO-25
100
AcDbAlignedDimension
 13
186.3504687649125
 23
27.98595714613114
 33
0.0
 14
149.6004687649125
 24
31.98595714613117
 34
0.0
 50
270.0
100
AcDbRotatedDimension
1001
ACAD
1000
DSTYLE
1002
{
1070
   278
1070
    46
1070
   147
1040
1.0
1070
    77
1070
     1
1070
    74
1070
     0
1070
    73
1070
     0
1070
    42
1040
2.54
1070
    44
1040
2.0
1070
    76
1070
     0
1070
    75
1070
     0
1070
   279
1070
     0
1070
   271
1070
     0
1070
   144
1040
1.0
1070
   173
1070
     1
1070
    41
1040
3.114
1070
   140
1040
4.0
1070
   344
1005
264
1070
   343
1005
264
1002
}
  0
DIMENSION
  5
308
330
1F
100
AcDbEntity
  8
0
 62
     7
100
AcDbDimension
  2
*D19
 10
199.974235022698
 20
31.98595714613117
 30
0.0
 11
199.974235022698
 21
47.98695714613118
 31
0.0
 70
   160
 71
     5
 42
32.00000000000004
  3
ISO-25
100
AcDbAlignedDimension
 13
151.1004687649125
 23
63.98595714613118
 33
0.0
 14
199.973235022698
 24
31.98595714613117
 34
0.0
 50
90.00000000000001
100
AcDbRotatedDimension
1001
ACAD
1000
DSTYLE
1002
{
1070
   278
1070
    46
1070
   147
1040
1.0
1070
    77
1070
     1
1070
    74
1070
     0
1070
    73
1070
     0
1070
    42
1040
2.54
1070
    44
1040
3.0
1070
    76
1070
     1
1070
    75
1070
     0
1070
   279
1070
     0
1070
   271
1070
     0
1070
   144
1040
1.0
1070
   173
1070
     1
1070
    41
1040
3.114
1070
   140
1040
4.0
1070
   344
1005
264
1070
   343
1005
264
1002
}
  0
ENDSEC
  0
SECTION
  2
OBJECTS
  0
DICTIONARY
  5
C
330
0
100
AcDbDictionary
281
     1
  3
ACAD_GROUP
350
D
  3
ACAD_LAYOUT
350
1A
  3
ACAD_MLEADERSTYLE
350
316
  3
ACAD_MLINESTYLE
350
17
  3
ACAD_PLOTSETTINGS
350
19
  3
ACAD_PLOTSTYLENAME
350
E
  3
ACAD_SCALELIST
350
176
  3
ACAD_VISUALSTYLE
350
2A
  3
AcDbVariableDictionary
350
314
  0
DICTIONARY
  5
D
102
{ACAD_REACTORS
330
C
102
}
330
C
100
AcDbDictionary
281
     1
  0
DICTIONARY
  5
1A
102
{ACAD_REACTORS
330
C
102
}
330
C
100
AcDbDictionary
281
     1
  3
Layout1
350
1E
  3
Layout2
350
26
  3
Model
350
22
  0
DICTIONARY
  5
316
102
{ACAD_REACTORS
330
C
102
}
330
C
100
AcDbDictionary
281
     1
  0
DICTIONARY
  5
17
102
{ACAD_REACTORS
330
C
102
}
330
C
100
AcDbDictionary
281
     1
  3
Standard
350
18
  0
DICTIONARY
  5
19
102
{ACAD_REACTORS
330
C
102
}
330
C
100
AcDbDictionary
281
     1
  0
ACDBDICTIONARYWDFLT
  5
E
102
{ACAD_REACTORS
330
C
102
}
330
C
100
AcDbDictionary
281
     1
  3
Normal
350
F
100
AcDbDictionaryWithDefault
340
F
  0
DICTIONARY
  5
176
102
{ACAD_REACTORS
330
C
102
}
330
C
100
AcDbDictionary
281
     1
  3
A0
350
177
  3
A1
350
178
  3
A2
350
179
  3
A3
350
17A
  3
A4
350
17B
  3
A5
350
17C
  3
A6
350
17D
  3
A7
350
17E
  3
A8
350
17F
  3
A9
350
180
  3
B0
350
181
  3
B1
350
182
  3
B2
350
183
  3
B3
350
184
  3
B4
350
185
  3
B5
350
186
  3
B6
350
187
  3
B7
350
188
  3
B8
350
189
  3
B9
350
18A
  3
C0
350
18B
  3
C1
350
18C
  3
C2
350
18D
  3
C3
350
18E
  3
C4
350
18F
  3
C5
350
190
  3
C6
350
191
  3
C7
350
192
  3
C8
350
193
  3
C9
350
194
  3
D0
350
195
  3
D1
350
196
  3
D2
350
197
  0
DICTIONARY
  5
2A
102
{ACAD_REACTORS
330
C
102
}
330
C
100
AcDbDictionary
281
     1
  3
2dWireframe
350
2F
  3
3D Hidden
350
31
  3
3dWireframe
350
30
  3
Basic
350
32
  3
Brighten
350
36
  3
ColorChange
350
3A
  3
Conceptual
350
34
  3
Dim
350
35
  3
Facepattern
350
39
  3
Flat
350
2B
  3
FlatWithEdges
350
2C
  3
Gouraud
350
2D
  3
GouraudWithEdges
350
2E
  3
Linepattern
350
38
  3
Realistic
350
33
  3
Thicken
350
37
  0
DICTIONARY
  5
314
102
{ACAD_REACTORS
330
C
102
}
330
C
100
AcDbDictionary
281
     1
  3
CANNOSCALE
350
319
  3
DIMASSOC
350
31A
  3
HIDETEXT
350
31B
  3
PSOLHEIGHT
350
318
  3
PSOLWIDTH
350
317
  0
LAYOUT
  5
1E
102
{ACAD_REACTORS
330
1A
102
}
330
1A
100
AcDbPlotSettings
  1

  2
none_device
  4

  6

 40
0.0
 41
0.0
 42
0.0
 43
0.0
 44
0.0
 45
0.0
 46
0.0
 47
0.0
 48
0.0
 49
0.0
140
0.0
141
0.0
142
1.0
143
1.0
 70
   688
 72
     0
 73
     0
 74
     5
  7

 75
    16
147
1.0
148
0.0
149
0.0
100
AcDbLayout
  1
Layout1
 70
     1
 71
     1
 10
41.21141525032304
 20
4.24903029743507
 11
260.4956880123399
 21
141.5004785415128
 12
0.0
 22
0.0
 32
0.0
 14
1.000000000000000E+20
 24
1.000000000000000E+20
 34
1.000000000000000E+20
 15
-1.000000000000000E+20
 25
-1.000000000000000E+20
 35
-1.000000000000000E+20
146
0.0
 13
0.0
 23
0.0
 33
0.0
 16
1.0
 26
0.0
 36
0.0
 17
0.0
 27
1.0
 37
0.0
 76
     0
330
1B
  0
LAYOUT
  5
26
102
{ACAD_REACTORS
330
1A
102
}
330
1A
100
AcDbPlotSettings
  1

  2
none_device
  4

  6

 40
0.0
 41
0.0
 42
0.0
 43
0.0
 44
0.0
 45
0.0
 46
0.0
 47
0.0
 48
0.0
 49
0.0
140
0.0
141
0.0
142
1.0
143
1.0
 70
   688
 72
     0
 73
     0
 74
     5
  7

 75
    16
147
1.0
148
0.0
149
0.0
100
AcDbLayout
  1
Layout2
 70
     1
 71
     2
 10
0.0
 20
0.0
 11
0.0
 21
0.0
 12
0.0
 22
0.0
 32
0.0
 14
0.0
 24
0.0
 34
0.0
 15
0.0
 25
0.0
 35
0.0
146
0.0
 13
0.0
 23
0.0
 33
0.0
 16
1.0
 26
0.0
 36
0.0
 17
0.0
 27
1.0
 37
0.0
 76
     0
330
23
  0
LAYOUT
  5
22
102
{ACAD_REACTORS
330
1A
102
}
330
1A
100
AcDbPlotSettings
  1

  2
none_device
  4

  6

 40
0.0
 41
0.0
 42
0.0
 43
0.0
 44
0.0
 45
0.0
 46
0.0
 47
0.0
 48
0.0
 49
0.0
140
0.0
141
0.0
142
1.0
143
1.0
 70
  1712
 72
     0
 73
     0
 74
     0
  7

 75
     0
147
1.0
148
0.0
149
0.0
100
AcDbLayout
  1
Model
 70
     1
 71
     0
 10
41.21141525032304
 20
4.24903029743507
 11
260.4956880123399
 21
141.5004785415128
 12
0.0
 22
0.0
 32
0.0
 14
41.21141525032304
 24
4.24903029743507
 34
0.0
 15
260.4956880123399
 25
141.5004785415128
 35
0.0
146
0.0
 13
0.0
 23
0.0
 33
0.0
 16
1.0
 26
0.0
 36
0.0
 17
0.0
 27
1.0
 37
0.0
 76
     0
330
1F
331
29
  0
MLINESTYLE
  5
18
102
{ACAD_REACTORS
330
17
102
}
330
17
100
AcDbMlineStyle
  2
Standard
 70
     0
  3

 62
   256
 51
90.0
 52
90.0
 71
     2
 49
0.5
 62
   256
  6
BYLAYER
 49
-0.5
 62
   256
  6
BYLAYER
  0
ACDBPLACEHOLDER
  5
F
102
{ACAD_REACTORS
330
E
102
}
330
E
  0
SCALE
  5
177
102
{ACAD_REACTORS
330
176
102
}
330
176
100
AcDbScale
 70
     0
300
1:1
140
1.0
141
1.0
290
     1
  0
SCALE
  5
178
102
{ACAD_REACTORS
330
176
102
}
330
176
100
AcDbScale
 70
     0
300
1:2
140
1.0
141
2.0
290
     0
  0
SCALE
  5
179
102
{ACAD_REACTORS
330
176
102
}
330
176
100
AcDbScale
 70
     0
300
1:4
140
1.0
141
4.0
290
     0
  0
SCALE
  5
17A
102
{ACAD_REACTORS
330
176
102
}
330
176
100
AcDbScale
 70
     0
300
1:5
140
1.0
141
5.0
290
     0
  0
SCALE
  5
17B
102
{ACAD_REACTORS
330
176
102
}
330
176
100
AcDbScale
 70
     0
300
1:8
140
1.0
141
8.0
290
     0
  0
SCALE
  5
17C
102
{ACAD_REACTORS
330
176
102
}
330
176
100
AcDbScale
 70
     0
300
1:10
140
1.0
141
10.0
290
     0
  0
SCALE
  5
17D
102
{ACAD_REACTORS
330
176
102
}
330
176
100
AcDbScale
 70
     0
300
1:16
140
1.0
141
16.0
290
     0
  0
SCALE
  5
17E
102
{ACAD_REACTORS
330
176
102
}
330
176
100
AcDbScale
 70
     0
300
1:20
140
1.0
141
20.0
290
     0
  0
SCALE
  5
17F
102
{ACAD_REACTORS
330
176
102
}
330
176
100
AcDbScale
 70
     0
300
1:30
140
1.0
141
30.0
290
     0
  0
SCALE
  5
180
102
{ACAD_REACTORS
330
176
102
}
330
176
100
AcDbScale
 70
     0
300
1:40
140
1.0
141
40.0
290
     0
  0
SCALE
  5
181
102
{ACAD_REACTORS
330
176
102
}
330
176
100
AcDbScale
 70
     0
300
1:50
140
1.0
141
50.0
290
     0
  0
SCALE
  5
182
102
{ACAD_REACTORS
330
176
102
}
330
176
100
AcDbScale
 70
     0
300
1:100
140
1.0
141
100.0
290
     0
  0
SCALE
  5
183
102
{ACAD_REACTORS
330
176
102
}
330
176
100
AcDbScale
 70
     0
300
2:1
140
2.0
141
1.0
290
     0
  0
SCALE
  5
184
102
{ACAD_REACTORS
330
176
102
}
330
176
100
AcDbScale
 70
     0
300
4:1
140
4.0
141
1.0
290
     0
  0
SCALE
  5
185
102
{ACAD_REACTORS
330
176
102
}
330
176
100
AcDbScale
 70
     0
300
8:1
140
8.0
141
1.0
290
     0
  0
SCALE
  5
186
102
{ACAD_REACTORS
330
176
102
}
330
176
100
AcDbScale
 70
     0
300
10:1
140
10.0
141
1.0
290
     0
  0
SCALE
  5
187
102
{ACAD_REACTORS
330
176
102
}
330
176
100
AcDbScale
 70
     0
300
100:1
140
100.0
141
1.0
290
     0
  0
SCALE
  5
188
102
{ACAD_REACTORS
330
176
102
}
330
176
100
AcDbScale
 70
     0
300
1/128" = 1'-0"
140
0.0078125
141
12.0
290
     0
  0
SCALE
  5
189
102
{ACAD_REACTORS
330
176
102
}
330
176
100
AcDbScale
 70
     0
300
1/64" = 1'-0"
140
0.015625
141
12.0
290
     0
  0
SCALE
  5
18A
102
{ACAD_REACTORS
330
176
102
}
330
176
100
AcDbScale
 70
     0
300
1/32" = 1'-0"
140
0.03125
141
12.0
290
     0
  0
SCALE
  5
18B
102
{ACAD_REACTORS
330
176
102
}
330
176
100
AcDbScale
 70
     0
300
1/16" = 1'-0"
140
0.0625
141
12.0
290
     0
  0
SCALE
  5
18C
102
{ACAD_REACTORS
330
176
102
}
330
176
100
AcDbScale
 70
     0
300
3/32" = 1'-0"
140
0.09375
141
12.0
290
     0
  0
SCALE
  5
18D
102
{ACAD_REACTORS
330
176
102
}
330
176
100
AcDbScale
 70
     0
300
1/8" = 1'-0"
140
0.125
141
12.0
290
     0
  0
SCALE
  5
18E
102
{ACAD_REACTORS
330
176
102
}
330
176
100
AcDbScale
 70
     0
300
3/16" = 1'-0"
140
0.1875
141
12.0
290
     0
  0
SCALE
  5
18F
102
{ACAD_REACTORS
330
176
102
}
330
176
100
AcDbScale
 70
     0
300
1/4" = 1'-0"
140
0.25
141
12.0
290
     0
  0
SCALE
  5
190
102
{ACAD_REACTORS
330
176
102
}
330
176
100
AcDbScale
 70
     0
300
3/8" = 1'-0"
140
0.375
141
12.0
290
     0
  0
SCALE
  5
191
102
{ACAD_REACTORS
330
176
102
}
330
176
100
AcDbScale
 70
     0
300
1/2" = 1'-0"
140
0.5
141
12.0
290
     0
  0
SCALE
  5
192
102
{ACAD_REACTORS
330
176
102
}
330
176
100
AcDbScale
 70
     0
300
3/4" = 1'-0"
140
0.75
141
12.0
290
     0
  0
SCALE
  5
193
102
{ACAD_REACTORS
330
176
102
}
330
176
100
AcDbScale
 70
     0
300
1" = 1'-0"
140
1.0
141
12.0
290
     0
  0
SCALE
  5
194
102
{ACAD_REACTORS
330
176
102
}
330
176
100
AcDbScale
 70
     0
300
1-1/2" = 1'-0"
140
1.5
141
12.0
290
     0
  0
SCALE
  5
195
102
{ACAD_REACTORS
330
176
102
}
330
176
100
AcDbScale
 70
     0
300
3" = 1'-0"
140
3.0
141
12.0
290
     0
  0
SCALE
  5
196
102
{ACAD_REACTORS
330
176
102
}
330
176
100
AcDbScale
 70
     0
300
6" = 1'-0"
140
6.0
141
12.0
290
     0
  0
SCALE
  5
197
102
{ACAD_REACTORS
330
176
102
}
330
176
100
AcDbScale
 70
     0
300
1'-0" = 1'-0"
140
12.0
141
12.0
290
     0
  0
VISUALSTYLE
  5
2F
102
{ACAD_REACTORS
330
2A
102
}
102
{ACAD_XDICTIONARY
360
324
102
}
330
2A
100
AcDbVisualStyle
  2
2dWireframe
 70
     4
 71
     0
 72
     2
 73
     0
 90
        0
 40
-0.6
 41
-30.0
 62
     5
 63
     7
 74
     1
 91
        4
 64
     7
 65
   257
 75
     1
175
     1
 42
1.0
 92
        0
 66
   257
 43
1.0
 76
     1
 77
     6
 78
     2
 67
     7
 79
     5
170
     0
171
     0
290
     0
174
     0
 93
        1
 44
0.0
173
     0
291
     0
 45
0.0
1001
ACAD
1000
AcDbSavedByObjectVersion
1070
     0
  0
VISUALSTYLE
  5
31
102
{ACAD_REACTORS
330
2A
102
}
102
{ACAD_XDICTIONARY
360
328
102
}
330
2A
100
AcDbVisualStyle
  2
3D Hidden
 70
     6
 71
     1
 72
     2
 73
     2
 90
        0
 40
-0.6
 41
-30.0
 62
     5
 63
     7
 74
     2
 91
        2
 64
     7
 65
   257
 75
     2
175
     1
 42
40.0
 92
        0
 66
   257
 43
1.0
 76
     1
 77
     6
 78
     2
 67
     7
 79
     3
170
     0
171
     0
290
     0
174
     0
 93
        1
 44
0.0
173
     0
291
     0
 45
0.0
1001
ACAD
1000
AcDbSavedByObjectVersion
1070
     0
  0
VISUALSTYLE
  5
30
102
{ACAD_REACTORS
330
2A
102
}
102
{ACAD_XDICTIONARY
360
326
102
}
330
2A
100
AcDbVisualStyle
  2
3dWireframe
 70
     5
 71
     0
 72
     2
 73
     0
 90
        0
 40
-0.6
 41
-30.0
 62
     5
 63
     7
 74
     1
 91
        4
 64
     7
 65
   257
 75
     1
175
     1
 42
1.0
 92
        0
 66
   257
 43
1.0
 76
     1
 77
     6
 78
     2
 67
     7
 79
     5
170
     0
171
     0
290
     0
174
     0
 93
        1
 44
0.0
173
     0
291
     0
 45
0.0
1001
ACAD
1000
AcDbSavedByObjectVersion
1070
     0
  0
VISUALSTYLE
  5
32
102
{ACAD_REACTORS
330
2A
102
}
102
{ACAD_XDICTIONARY
360
32A
102
}
330
2A
100
AcDbVisualStyle
  2
Basic
 70
     7
 71
     1
 72
     0
 73
     1
 90
        0
 40
-0.6
 41
-30.0
 62
     5
 63
     7
 74
     0
 91
        4
 64
     7
 65
   257
 75
     1
175
     1
 42
1.0
 92
        8
 66
     7
 43
1.0
 76
     1
 77
     6
 78
     2
 67
     7
 79
     5
170
     0
171
     0
290
     0
174
     0
 93
        1
 44
0.0
173
     0
291
     1
 45
0.0
1001
ACAD
1000
AcDbSavedByObjectVersion
1070
     0
  0
VISUALSTYLE
  5
36
102
{ACAD_REACTORS
330
2A
102
}
102
{ACAD_XDICTIONARY
360
332
102
}
330
2A
100
AcDbVisualStyle
  2
Brighten
 70
    12
 71
     2
 72
     2
 73
     0
 90
        0
 40
-0.6
 41
-30.0
 62
     5
 63
     7
 74
     1
 91
        4
 64
     7
 65
   257
 75
     1
175
     1
 42
1.0
 92
        8
 66
     7
 43
1.0
 76
     1
 77
     6
 78
     2
 67
     7
 79
     5
170
     0
171
     0
290
     0
174
     0
 93
        1
 44
50.0
173
     0
291
     1
 45
0.0
1001
ACAD
1000
AcDbSavedByObjectVersion
1070
     0
  0
VISUALSTYLE
  5
3A
102
{ACAD_REACTORS
330
2A
102
}
102
{ACAD_XDICTIONARY
360
33A
102
}
330
2A
100
AcDbVisualStyle
  2
ColorChange
 70
    16
 71
     2
 72
     2
 73
     3
 90
        0
 40
-0.6
 41
-30.0
 62
     5
 63
     8
 74
     1
 91
        4
 64
     7
 65
   257
 75
     1
175
     1
 42
1.0
 92
        8
 66
     8
 43
1.0
 76
     1
 77
     6
 78
     2
 67
     7
 79
     5
170
     0
171
     0
290
     0
174
     0
 93
        1
 44
0.0
173
     0
291
     1
 45
0.0
1001
ACAD
1000
AcDbSavedByObjectVersion
1070
     0
  0
VISUALSTYLE
  5
34
102
{ACAD_REACTORS
330
2A
102
}
102
{ACAD_XDICTIONARY
360
32E
102
}
330
2A
100
AcDbVisualStyle
  2
Conceptual
 70
     9
 71
     3
 72
     2
 73
     0
 90
        0
 40
-0.6
 41
-30.0
 62
     5
 63
     7
 74
     2
 91
        2
 64
     7
 65
   257
 75
     1
175
     1
 42
40.0
 92
        8
 66
     7
 43
1.0
 76
     1
 77
     6
 78
     2
 67
     7
 79
     3
170
     0
171
     0
290
     0
174
     0
 93
        1
 44
0.0
173
     0
291
     0
 45
0.0
1001
ACAD
1000
AcDbSavedByObjectVersion
1070
     0
  0
VISUALSTYLE
  5
35
102
{ACAD_REACTORS
330
2A
102
}
102
{ACAD_XDICTIONARY
360
330
102
}
330
2A
100
AcDbVisualStyle
  2
Dim
 70
    11
 71
     2
 72
     2
 73
     0
 90
        0
 40
-0.6
 41
-30.0
 62
     5
 63
     7
 74
     1
 91
        4
 64
     7
 65
   257
 75
     1
175
     1
 42
1.0
 92
        8
 66
     7
 43
1.0
 76
     1
 77
     6
 78
     2
 67
     7
 79
     5
170
     0
171
     0
290
     0
174
     0
 93
        1
 44
-50.0
173
     0
291
     1
 45
0.0
1001
ACAD
1000
AcDbSavedByObjectVersion
1070
     0
  0
VISUALSTYLE
  5
39
102
{ACAD_REACTORS
330
2A
102
}
102
{ACAD_XDICTIONARY
360
338
102
}
330
2A
100
AcDbVisualStyle
  2
Facepattern
 70
    15
 71
     2
 72
     2
 73
     0
 90
        0
 40
-0.6
 41
-30.0
 62
     5
 63
     7
 74
     1
 91
        4
 64
     7
 65
   257
 75
     1
175
     1
 42
1.0
 92
        8
 66
     7
 43
1.0
 76
     1
 77
     6
 78
     2
 67
     7
 79
     5
170
     0
171
     0
290
     0
174
     0
 93
        1
 44
0.0
173
     0
291
     1
 45
0.0
1001
ACAD
1000
AcDbSavedByObjectVersion
1070
     0
  0
VISUALSTYLE
  5
2B
102
{ACAD_REACTORS
330
2A
102
}
102
{ACAD_XDICTIONARY
360
31C
102
}
330
2A
100
AcDbVisualStyle
  2
Flat
 70
     0
 71
     2
 72
     1
 73
     1
 90
        2
 40
-0.6
 41
30.0
 62
     5
 63
     7
 74
     0
 91
        4
 64
     7
 65
   257
 75
     1
175
     1
 42
1.0
 92
        8
 66
     7
 43
1.0
 76
     1
 77
     6
 78
     2
 67
     7
 79
     5
170
     0
171
     0
290
     0
174
     0
 93
       13
 44
0.0
173
     0
291
     1
 45
0.0
1001
ACAD
1000
AcDbSavedByObjectVersion
1070
     0
  0
VISUALSTYLE
  5
2C
102
{ACAD_REACTORS
330
2A
102
}
102
{ACAD_XDICTIONARY
360
31E
102
}
330
2A
100
AcDbVisualStyle
  2
FlatWithEdges
 70
     1
 71
     2
 72
     1
 73
     1
 90
        2
 40
-0.6
 41
30.0
 62
     5
 63
     7
 74
     1
 91
        4
 64
     7
 65
   257
 75
     1
175
     1
 42
1.0
 92
        0
 66
   257
 43
1.0
 76
     1
 77
     6
 78
     2
 67
     7
 79
     5
170
     0
171
     0
290
     0
174
     0
 93
       13
 44
0.0
173
     0
291
     1
 45
0.0
1001
ACAD
1000
AcDbSavedByObjectVersion
1070
     0
  0
VISUALSTYLE
  5
2D
102
{ACAD_REACTORS
330
2A
102
}
102
{ACAD_XDICTIONARY
360
320
102
}
330
2A
100
AcDbVisualStyle
  2
Gouraud
 70
     2
 71
     2
 72
     2
 73
     1
 90
        2
 40
-0.6
 41
30.0
 62
     5
 63
     7
 74
     0
 91
        4
 64
     7
 65
   257
 75
     1
175
     1
 42
1.0
 92
        0
 66
     7
 43
1.0
 76
     1
 77
     6
 78
     2
 67
     7
 79
     5
170
     0
171
     0
290
     0
174
     0
 93
       13
 44
0.0
173
     0
291
     1
 45
0.0
1001
ACAD
1000
AcDbSavedByObjectVersion
1070
     0
  0
VISUALSTYLE
  5
2E
102
{ACAD_REACTORS
330
2A
102
}
102
{ACAD_XDICTIONARY
360
322
102
}
330
2A
100
AcDbVisualStyle
  2
GouraudWithEdges
 70
     3
 71
     2
 72
     2
 73
     1
 90
        2
 40
-0.6
 41
30.0
 62
     5
 63
     7
 74
     1
 91
        4
 64
     7
 65
   257
 75
     1
175
     1
 42
1.0
 92
        0
 66
   257
 43
1.0
 76
     1
 77
     6
 78
     2
 67
     7
 79
     5
170
     0
171
     0
290
     0
174
     0
 93
       13
 44
0.0
173
     0
291
     1
 45
0.0
1001
ACAD
1000
AcDbSavedByObjectVersion
1070
     0
  0
VISUALSTYLE
  5
38
102
{ACAD_REACTORS
330
2A
102
}
102
{ACAD_XDICTIONARY
360
336
102
}
330
2A
100
AcDbVisualStyle
  2
Linepattern
 70
    14
 71
     2
 72
     2
 73
     0
 90
        0
 40
-0.6
 41
-30.0
 62
     5
 63
     7
 74
     1
 91
        4
 64
     7
 65
   257
 75
     7
175
     7
 42
1.0
 92
        8
 66
     7
 43
1.0
 76
     1
 77
     6
 78
     2
 67
     7
 79
     5
170
     0
171
     0
290
     0
174
     0
 93
        1
 44
0.0
173
     0
291
     1
 45
0.0
1001
ACAD
1000
AcDbSavedByObjectVersion
1070
     0
  0
VISUALSTYLE
  5
33
102
{ACAD_REACTORS
330
2A
102
}
102
{ACAD_XDICTIONARY
360
32C
102
}
330
2A
100
AcDbVisualStyle
  2
Realistic
 70
     8
 71
     2
 72
     2
 73
     0
 90
        0
 40
-0.6
 41
-30.0
 62
     5
 63
     7
 74
     1
 91
        0
 64
     7
 65
   257
 75
     1
175
     1
 42
1.0
 92
        8
 66
     8
 43
1.0
 76
     1
 77
     6
 78
     2
 67
     7
 79
     5
170
     0
171
     0
290
     0
174
     0
 93
       13
 44
0.0
173
     0
291
     0
 45
0.0
1001
ACAD
1000
AcDbSavedByObjectVersion
1070
     0
  0
VISUALSTYLE
  5
37
102
{ACAD_REACTORS
330
2A
102
}
102
{ACAD_XDICTIONARY
360
334
102
}
330
2A
100
AcDbVisualStyle
  2
Thicken
 70
    13
 71
     2
 72
     2
 73
     0
 90
        0
 40
-0.6
 41
-30.0
 62
     5
 63
     7
 74
     1
 91
        4
 64
     7
 65
   257
 75
     1
175
     1
 42
1.0
 92
       12
 66
     7
 43
1.0
 76
     1
 77
     6
 78
     2
 67
     7
 79
     5
170
     0
171
     0
290
     0
174
     0
 93
        1
 44
0.0
173
     0
291
     1
 45
0.0
1001
ACAD
1000
AcDbSavedByObjectVersion
1070
     0
  0
DICTIONARYVAR
  5
319
102
{ACAD_REACTORS
330
314
102
}
330
314
100
DictionaryVariables
280
     0
  1
1:1
  0
DICTIONARYVAR
  5
31A
102
{ACAD_REACTORS
330
314
102
}
330
314
100
DictionaryVariables
280
     0
  1
2
  0
DICTIONARYVAR
  5
31B
102
{ACAD_REACTORS
330
314
102
}
330
314
100
DictionaryVariables
280
     0
  1
1
  0
DICTIONARYVAR
  5
318
102
{ACAD_REACTORS
330
314
102
}
330
314
100
DictionaryVariables
280
     0
  1
80.000000
  0
DICTIONARYVAR
  5
317
102
{ACAD_REACTORS
330
314
102
}
330
314
100
DictionaryVariables
280
     0
  1
5.000000
  0
DICTIONARY
  5
324
330
2F
100
AcDbDictionary
280
     1
281
     1
  3
ACAD_XREC_ROUNDTRIP
360
325
  0
DICTIONARY
  5
328
330
31
100
AcDbDictionary
280
     1
281
     1
  3
ACAD_XREC_ROUNDTRIP
360
329
  0
DICTIONARY
  5
326
330
30
100
AcDbDictionary
280
     1
281
     1
  3
ACAD_XREC_ROUNDTRIP
360
327
  0
DICTIONARY
  5
32A
330
32
100
AcDbDictionary
280
     1
281
     1
  3
ACAD_XREC_ROUNDTRIP
360
32B
  0
DICTIONARY
  5
332
330
36
100
AcDbDictionary
280
     1
281
     1
  3
ACAD_XREC_ROUNDTRIP
360
333
  0
DICTIONARY
  5
33A
330
3A
100
AcDbDictionary
280
     1
281
     1
  3
ACAD_XREC_ROUNDTRIP
360
33B
  0
DICTIONARY
  5
32E
330
34
100
AcDbDictionary
280
     1
281
     1
  3
ACAD_XREC_ROUNDTRIP
360
32F
  0
DICTIONARY
  5
330
330
35
100
AcDbDictionary
280
     1
281
     1
  3
ACAD_XREC_ROUNDTRIP
360
331
  0
DICTIONARY
  5
338
330
39
100
AcDbDictionary
280
     1
281
     1
  3
ACAD_XREC_ROUNDTRIP
360
339
  0
DICTIONARY
  5
31C
330
2B
100
AcDbDictionary
280
     1
281
     1
  3
ACAD_XREC_ROUNDTRIP
360
31D
  0
DICTIONARY
  5
31E
330
2C
100
AcDbDictionary
280
     1
281
     1
  3
ACAD_XREC_ROUNDTRIP
360
31F
  0
DICTIONARY
  5
320
330
2D
100
AcDbDictionary
280
     1
281
     1
  3
ACAD_XREC_ROUNDTRIP
360
321
  0
DICTIONARY
  5
322
330
2E
100
AcDbDictionary
280
     1
281
     1
  3
ACAD_XREC_ROUNDTRIP
360
323
  0
DICTIONARY
  5
336
330
38
100
AcDbDictionary
280
     1
281
     1
  3
ACAD_XREC_ROUNDTRIP
360
337
  0
DICTIONARY
  5
32C
330
33
100
AcDbDictionary
280
     1
281
     1
  3
ACAD_XREC_ROUNDTRIP
360
32D
  0
DICTIONARY
  5
334
330
37
100
AcDbDictionary
280
     1
281
     1
  3
ACAD_XREC_ROUNDTRIP
360
335
  0
XRECORD
  5
325
102
{ACAD_REACTORS
330
324
102
}
330
324
100
AcDbXrecord
280
     1
102
RTVSPropertyOp0
 70
     1
102
RTVSPropertyOp1
 70
     1
102
RTVSPropertyOp2
 70
     1
102
RTVSPropertyOp3
 70
     1
102
RTVSPropertyOp4
 70
     1
102
RTVSPropertyOp5
 70
     1
102
RTVSPropertyOp6
 70
     1
102
RTVSPropertyOp7
 70
     1
102
RTVSPropertyOp8
 70
     1
102
RTVSPropertyOp9
 70
     1
102
RTVSPropertyOp10
 70
     1
102
RTVSPropertyOp11
 70
     1
102
RTVSPropertyOp12
 70
     1
102
RTVSPropertyOp13
 70
     1
102
RTVSPropertyOp14
 70
     1
102
RTVSPropertyOp15
 70
     1
102
RTVSPropertyOp16
 70
     1
102
RTVSPropertyOp17
 70
     1
102
RTVSPropertyOp18
 70
     1
102
RTVSPropertyOp19
 70
     1
102
RTVSPropertyOp20
 70
     1
102
RTVSPropertyOp21
 70
     1
102
RTVSPropertyOp22
 70
     1
102
RTVSPropertyOp23
 70
     1
102
RTVSPropertyOp24
 70
     1
102
RTVSPropertyOp25
 70
     1
102
RTVSPropertyOp26
 70
     1
102
RTVSPropertyOp27
 70
     1
  0
XRECORD
  5
329
102
{ACAD_REACTORS
330
328
102
}
330
328
100
AcDbXrecord
280
     1
102
RTVSPropertyOp0
 70
     1
102
RTVSPropertyOp1
 70
     1
102
RTVSPropertyOp2
 70
     1
102
RTVSPropertyOp3
 70
     1
102
RTVSPropertyOp4
 70
     1
102
RTVSPropertyOp5
 70
     1
102
RTVSPropertyOp6
 70
     1
102
RTVSPropertyOp7
 70
     1
102
RTVSPropertyOp8
 70
     1
102
RTVSPropertyOp9
 70
     1
102
RTVSPropertyOp10
 70
     1
102
RTVSPropertyOp11
 70
     1
102
RTVSPropertyOp12
 70
     1
102
RTVSPropertyOp13
 70
     1
102
RTVSPropertyOp14
 70
     1
102
RTVSPropertyOp15
 70
     1
102
RTVSPropertyOp16
 70
     1
102
RTVSPropertyOp17
 70
     1
102
RTVSPropertyOp18
 70
     1
102
RTVSPropertyOp19
 70
     1
102
RTVSPropertyOp20
 70
     1
102
RTVSPropertyOp21
 70
     1
102
RTVSPropertyOp22
 70
     1
102
RTVSPropertyOp23
 70
     1
102
RTVSPropertyOp24
 70
     1
102
RTVSPropertyOp25
 70
     1
102
RTVSPropertyOp26
 70
     1
102
RTVSPropertyOp27
 70
     1
  0
XRECORD
  5
327
102
{ACAD_REACTORS
330
326
102
}
330
326
100
AcDbXrecord
280
     1
102
RTVSPropertyOp0
 70
     1
102
RTVSPropertyOp1
 70
     1
102
RTVSPropertyOp2
 70
     1
102
RTVSPropertyOp3
 70
     1
102
RTVSPropertyOp4
 70
     1
102
RTVSPropertyOp5
 70
     1
102
RTVSPropertyOp6
 70
     1
102
RTVSPropertyOp7
 70
     1
102
RTVSPropertyOp8
 70
     1
102
RTVSPropertyOp9
 70
     1
102
RTVSPropertyOp10
 70
     1
102
RTVSPropertyOp11
 70
     1
102
RTVSPropertyOp12
 70
     1
102
RTVSPropertyOp13
 70
     1
102
RTVSPropertyOp14
 70
     1
102
RTVSPropertyOp15
 70
     1
102
RTVSPropertyOp16
 70
     1
102
RTVSPropertyOp17
 70
     1
102
RTVSPropertyOp18
 70
     1
102
RTVSPropertyOp19
 70
     1
102
RTVSPropertyOp20
 70
     1
102
RTVSPropertyOp21
 70
     1
102
RTVSPropertyOp22
 70
     1
102
RTVSPropertyOp23
 70
     1
102
RTVSPropertyOp24
 70
     1
102
RTVSPropertyOp25
 70
     1
102
RTVSPropertyOp26
 70
     1
102
RTVSPropertyOp27
 70
     1
  0
XRECORD
  5
32B
102
{ACAD_REACTORS
330
32A
102
}
330
32A
100
AcDbXrecord
280
     1
102
RTVSPropertyOp0
 70
     1
102
RTVSPropertyOp1
 70
     1
102
RTVSPropertyOp2
 70
     1
102
RTVSPropertyOp3
 70
     1
102
RTVSPropertyOp4
 70
     1
102
RTVSPropertyOp5
 70
     1
102
RTVSPropertyOp6
 70
     1
102
RTVSPropertyOp7
 70
     1
102
RTVSPropertyOp8
 70
     1
102
RTVSPropertyOp9
 70
     1
102
RTVSPropertyOp10
 70
     1
102
RTVSPropertyOp11
 70
     1
102
RTVSPropertyOp12
 70
     1
102
RTVSPropertyOp13
 70
     1
102
RTVSPropertyOp14
 70
     1
102
RTVSPropertyOp15
 70
     1
102
RTVSPropertyOp16
 70
     1
102
RTVSPropertyOp17
 70
     1
102
RTVSPropertyOp18
 70
     1
102
RTVSPropertyOp19
 70
     1
102
RTVSPropertyOp20
 70
     1
102
RTVSPropertyOp21
 70
     1
102
RTVSPropertyOp22
 70
     1
102
RTVSPropertyOp23
 70
     1
102
RTVSPropertyOp24
 70
     1
102
RTVSPropertyOp25
 70
     1
102
RTVSPropertyOp26
 70
     1
102
RTVSPropertyOp27
 70
     1
  0
XRECORD
  5
333
102
{ACAD_REACTORS
330
332
102
}
330
332
100
AcDbXrecord
280
     1
102
RTVSPropertyOp0
 70
     1
102
RTVSPropertyOp1
 70
     1
102
RTVSPropertyOp2
 70
     1
102
RTVSPropertyOp3
 70
     1
102
RTVSPropertyOp4
 70
     1
102
RTVSPropertyOp5
 70
     1
102
RTVSPropertyOp6
 70
     1
102
RTVSPropertyOp7
 70
     1
102
RTVSPropertyOp8
 70
     1
102
RTVSPropertyOp9
 70
     1
102
RTVSPropertyOp10
 70
     1
102
RTVSPropertyOp11
 70
     1
102
RTVSPropertyOp12
 70
     1
102
RTVSPropertyOp13
 70
     1
102
RTVSPropertyOp14
 70
     1
102
RTVSPropertyOp15
 70
     1
102
RTVSPropertyOp16
 70
     1
102
RTVSPropertyOp17
 70
     1
102
RTVSPropertyOp18
 70
     1
102
RTVSPropertyOp19
 70
     1
102
RTVSPropertyOp20
 70
     1
102
RTVSPropertyOp21
 70
     1
102
RTVSPropertyOp22
 70
     1
102
RTVSPropertyOp23
 70
     1
102
RTVSPropertyOp24
 70
     1
102
RTVSPropertyOp25
 70
     1
102
RTVSPropertyOp26
 70
     1
102
RTVSPropertyOp27
 70
     1
  0
XRECORD
  5
33B
102
{ACAD_REACTORS
330
33A
102
}
330
33A
100
AcDbXrecord
280
     1
102
RTVSPropertyOp0
 70
     1
102
RTVSPropertyOp1
 70
     1
102
RTVSPropertyOp2
 70
     1
102
RTVSPropertyOp3
 70
     1
102
RTVSPropertyOp4
 70
     1
102
RTVSPropertyOp5
 70
     1
102
RTVSPropertyOp6
 70
     1
102
RTVSPropertyOp7
 70
     1
102
RTVSPropertyOp8
 70
     1
102
RTVSPropertyOp9
 70
     1
102
RTVSPropertyOp10
 70
     1
102
RTVSPropertyOp11
 70
     1
102
RTVSPropertyOp12
 70
     1
102
RTVSPropertyOp13
 70
     1
102
RTVSPropertyOp14
 70
     1
102
RTVSPropertyOp15
 70
     1
102
RTVSPropertyOp16
 70
     1
102
RTVSPropertyOp17
 70
     1
102
RTVSPropertyOp18
 70
     1
102
RTVSPropertyOp19
 70
     1
102
RTVSPropertyOp20
 70
     1
102
RTVSPropertyOp21
 70
     1
102
RTVSPropertyOp22
 70
     1
102
RTVSPropertyOp23
 70
     1
102
RTVSPropertyOp24
 70
     1
102
RTVSPropertyOp25
 70
     1
102
RTVSPropertyOp26
 70
     1
102
RTVSPropertyOp27
 70
     1
  0
XRECORD
  5
32F
102
{ACAD_REACTORS
330
32E
102
}
330
32E
100
AcDbXrecord
280
     1
102
RTVSPropertyOp0
 70
     1
102
RTVSPropertyOp1
 70
     1
102
RTVSPropertyOp2
 70
     1
102
RTVSPropertyOp3
 70
     1
102
RTVSPropertyOp4
 70
     1
102
RTVSPropertyOp5
 70
     1
102
RTVSPropertyOp6
 70
     1
102
RTVSPropertyOp7
 70
     1
102
RTVSPropertyOp8
 70
     1
102
RTVSPropertyOp9
 70
     1
102
RTVSPropertyOp10
 70
     1
102
RTVSPropertyOp11
 70
     1
102
RTVSPropertyOp12
 70
     1
102
RTVSPropertyOp13
 70
     1
102
RTVSPropertyOp14
 70
     1
102
RTVSPropertyOp15
 70
     1
102
RTVSPropertyOp16
 70
     1
102
RTVSPropertyOp17
 70
     1
102
RTVSPropertyOp18
 70
     1
102
RTVSPropertyOp19
 70
     1
102
RTVSPropertyOp20
 70
     1
102
RTVSPropertyOp21
 70
     1
102
RTVSPropertyOp22
 70
     1
102
RTVSPropertyOp23
 70
     1
102
RTVSPropertyOp24
 70
     1
102
RTVSPropertyOp25
 70
     1
102
RTVSPropertyOp26
 70
     1
102
RTVSPropertyOp27
 70
     1
  0
XRECORD
  5
331
102
{ACAD_REACTORS
330
330
102
}
330
330
100
AcDbXrecord
280
     1
102
RTVSPropertyOp0
 70
     1
102
RTVSPropertyOp1
 70
     1
102
RTVSPropertyOp2
 70
     1
102
RTVSPropertyOp3
 70
     1
102
RTVSPropertyOp4
 70
     1
102
RTVSPropertyOp5
 70
     1
102
RTVSPropertyOp6
 70
     1
102
RTVSPropertyOp7
 70
     1
102
RTVSPropertyOp8
 70
     1
102
RTVSPropertyOp9
 70
     1
102
RTVSPropertyOp10
 70
     1
102
RTVSPropertyOp11
 70
     1
102
RTVSPropertyOp12
 70
     1
102
RTVSPropertyOp13
 70
     1
102
RTVSPropertyOp14
 70
     1
102
RTVSPropertyOp15
 70
     1
102
RTVSPropertyOp16
 70
     1
102
RTVSPropertyOp17
 70
     1
102
RTVSPropertyOp18
 70
     1
102
RTVSPropertyOp19
 70
     1
102
RTVSPropertyOp20
 70
     1
102
RTVSPropertyOp21
 70
     1
102
RTVSPropertyOp22
 70
     1
102
RTVSPropertyOp23
 70
     1
102
RTVSPropertyOp24
 70
     1
102
RTVSPropertyOp25
 70
     1
102
RTVSPropertyOp26
 70
     1
102
RTVSPropertyOp27
 70
     1
  0
XRECORD
  5
339
102
{ACAD_REACTORS
330
338
102
}
330
338
100
AcDbXrecord
280
     1
102
RTVSPropertyOp0
 70
     1
102
RTVSPropertyOp1
 70
     1
102
RTVSPropertyOp2
 70
     1
102
RTVSPropertyOp3
 70
     1
102
RTVSPropertyOp4
 70
     1
102
RTVSPropertyOp5
 70
     1
102
RTVSPropertyOp6
 70
     1
102
RTVSPropertyOp7
 70
     1
102
RTVSPropertyOp8
 70
     1
102
RTVSPropertyOp9
 70
     1
102
RTVSPropertyOp10
 70
     1
102
RTVSPropertyOp11
 70
     1
102
RTVSPropertyOp12
 70
     1
102
RTVSPropertyOp13
 70
     1
102
RTVSPropertyOp14
 70
     1
102
RTVSPropertyOp15
 70
     1
102
RTVSPropertyOp16
 70
     1
102
RTVSPropertyOp17
 70
     1
102
RTVSPropertyOp18
 70
     1
102
RTVSPropertyOp19
 70
     1
102
RTVSPropertyOp20
 70
     1
102
RTVSPropertyOp21
 70
     1
102
RTVSPropertyOp22
 70
     1
102
RTVSPropertyOp23
 70
     1
102
RTVSPropertyOp24
 70
     1
102
RTVSPropertyOp25
 70
     1
102
RTVSPropertyOp26
 70
     1
102
RTVSPropertyOp27
 70
     1
  0
XRECORD
  5
31D
102
{ACAD_REACTORS
330
31C
102
}
330
31C
100
AcDbXrecord
280
     1
102
RTVSPropertyOp0
 70
     1
102
RTVSPropertyOp1
 70
     1
102
RTVSPropertyOp2
 70
     1
102
RTVSPropertyOp3
 70
     1
102
RTVSPropertyOp4
 70
     1
102
RTVSPropertyOp5
 70
     1
102
RTVSPropertyOp6
 70
     1
102
RTVSPropertyOp7
 70
     1
102
RTVSPropertyOp8
 70
     1
102
RTVSPropertyOp9
 70
     1
102
RTVSPropertyOp10
 70
     1
102
RTVSPropertyOp11
 70
     1
102
RTVSPropertyOp12
 70
     1
102
RTVSPropertyOp13
 70
     1
102
RTVSPropertyOp14
 70
     1
102
RTVSPropertyOp15
 70
     1
102
RTVSPropertyOp16
 70
     1
102
RTVSPropertyOp17
 70
     1
102
RTVSPropertyOp18
 70
     1
102
RTVSPropertyOp19
 70
     1
102
RTVSPropertyOp20
 70
     1
102
RTVSPropertyOp21
 70
     1
102
RTVSPropertyOp22
 70
     1
102
RTVSPropertyOp23
 70
     1
102
RTVSPropertyOp24
 70
     1
102
RTVSPropertyOp25
 70
     1
102
RTVSPropertyOp26
 70
     1
102
RTVSPropertyOp27
 70
     1
  0
XRECORD
  5
31F
102
{ACAD_REACTORS
330
31E
102
}
330
31E
100
AcDbXrecord
280
     1
102
RTVSPropertyOp0
 70
     1
102
RTVSPropertyOp1
 70
     1
102
RTVSPropertyOp2
 70
     1
102
RTVSPropertyOp3
 70
     1
102
RTVSPropertyOp4
 70
     1
102
RTVSPropertyOp5
 70
     1
102
RTVSPropertyOp6
 70
     1
102
RTVSPropertyOp7
 70
     1
102
RTVSPropertyOp8
 70
     1
102
RTVSPropertyOp9
 70
     1
102
RTVSPropertyOp10
 70
     1
102
RTVSPropertyOp11
 70
     1
102
RTVSPropertyOp12
 70
     1
102
RTVSPropertyOp13
 70
     1
102
RTVSPropertyOp14
 70
     1
102
RTVSPropertyOp15
 70
     1
102
RTVSPropertyOp16
 70
     1
102
RTVSPropertyOp17
 70
     1
102
RTVSPropertyOp18
 70
     1
102
RTVSPropertyOp19
 70
     1
102
RTVSPropertyOp20
 70
     1
102
RTVSPropertyOp21
 70
     1
102
RTVSPropertyOp22
 70
     1
102
RTVSPropertyOp23
 70
     1
102
RTVSPropertyOp24
 70
     1
102
RTVSPropertyOp25
 70
     1
102
RTVSPropertyOp26
 70
     1
102
RTVSPropertyOp27
 70
     1
  0
XRECORD
  5
321
102
{ACAD_REACTORS
330
320
102
}
330
320
100
AcDbXrecord
280
     1
102
RTVSPropertyOp0
 70
     1
102
RTVSPropertyOp1
 70
     1
102
RTVSPropertyOp2
 70
     1
102
RTVSPropertyOp3
 70
     1
102
RTVSPropertyOp4
 70
     1
102
RTVSPropertyOp5
 70
     1
102
RTVSPropertyOp6
 70
     1
102
RTVSPropertyOp7
 70
     1
102
RTVSPropertyOp8
 70
     1
102
RTVSPropertyOp9
 70
     1
102
RTVSPropertyOp10
 70
     1
102
RTVSPropertyOp11
 70
     1
102
RTVSPropertyOp12
 70
     1
102
RTVSPropertyOp13
 70
     1
102
RTVSPropertyOp14
 70
     1
102
RTVSPropertyOp15
 70
     1
102
RTVSPropertyOp16
 70
     1
102
RTVSPropertyOp17
 70
     1
102
RTVSPropertyOp18
 70
     1
102
RTVSPropertyOp19
 70
     1
102
RTVSPropertyOp20
 70
     1
102
RTVSPropertyOp21
 70
     1
102
RTVSPropertyOp22
 70
     1
102
RTVSPropertyOp23
 70
     1
102
RTVSPropertyOp24
 70
     1
102
RTVSPropertyOp25
 70
     1
102
RTVSPropertyOp26
 70
     1
102
RTVSPropertyOp27
 70
     1
  0
XRECORD
  5
323
102
{ACAD_REACTORS
330
322
102
}
330
322
100
AcDbXrecord
280
     1
102
RTVSPropertyOp0
 70
     1
102
RTVSPropertyOp1
 70
     1
102
RTVSPropertyOp2
 70
     1
102
RTVSPropertyOp3
 70
     1
102
RTVSPropertyOp4
 70
     1
102
RTVSPropertyOp5
 70
     1
102
RTVSPropertyOp6
 70
     1
102
RTVSPropertyOp7
 70
     1
102
RTVSPropertyOp8
 70
     1
102
RTVSPropertyOp9
 70
     1
102
RTVSPropertyOp10
 70
     1
102
RTVSPropertyOp11
 70
     1
102
RTVSPropertyOp12
 70
     1
102
RTVSPropertyOp13
 70
     1
102
RTVSPropertyOp14
 70
     1
102
RTVSPropertyOp15
 70
     1
102
RTVSPropertyOp16
 70
     1
102
RTVSPropertyOp17
 70
     1
102
RTVSPropertyOp18
 70
     1
102
RTVSPropertyOp19
 70
     1
102
RTVSPropertyOp20
 70
     1
102
RTVSPropertyOp21
 70
     1
102
RTVSPropertyOp22
 70
     1
102
RTVSPropertyOp23
 70
     1
102
RTVSPropertyOp24
 70
     1
102
RTVSPropertyOp25
 70
     1
102
RTVSPropertyOp26
 70
     1
102
RTVSPropertyOp27
 70
     1
  0
XRECORD
  5
337
102
{ACAD_REACTORS
330
336
102
}
330
336
100
AcDbXrecord
280
     1
102
RTVSPropertyOp0
 70
     1
102
RTVSPropertyOp1
 70
     1
102
RTVSPropertyOp2
 70
     1
102
RTVSPropertyOp3
 70
     1
102
RTVSPropertyOp4
 70
     1
102
RTVSPropertyOp5
 70
     1
102
RTVSPropertyOp6
 70
     1
102
RTVSPropertyOp7
 70
     1
102
RTVSPropertyOp8
 70
     1
102
RTVSPropertyOp9
 70
     1
102
RTVSPropertyOp10
 70
     1
102
RTVSPropertyOp11
 70
     1
102
RTVSPropertyOp12
 70
     1
102
RTVSPropertyOp13
 70
     1
102
RTVSPropertyOp14
 70
     1
102
RTVSPropertyOp15
 70
     1
102
RTVSPropertyOp16
 70
     1
102
RTVSPropertyOp17
 70
     1
102
RTVSPropertyOp18
 70
     1
102
RTVSPropertyOp19
 70
     1
102
RTVSPropertyOp20
 70
     1
102
RTVSPropertyOp21
 70
     1
102
RTVSPropertyOp22
 70
     1
102
RTVSPropertyOp23
 70
     1
102
RTVSPropertyOp24
 70
     1
102
RTVSPropertyOp25
 70
     1
102
RTVSPropertyOp26
 70
     1
102
RTVSPropertyOp27
 70
     1
  0
XRECORD
  5
32D
102
{ACAD_REACTORS
330
32C
102
}
330
32C
100
AcDbXrecord
280
     1
102
RTVSPropertyOp0
 70
     1
102
RTVSPropertyOp1
 70
     1
102
RTVSPropertyOp2
 70
     1
102
RTVSPropertyOp3
 70
     1
102
RTVSPropertyOp4
 70
     1
102
RTVSPropertyOp5
 70
     1
102
RTVSPropertyOp6
 70
     1
102
RTVSPropertyOp7
 70
     1
102
RTVSPropertyOp8
 70
     1
102
RTVSPropertyOp9
 70
     1
102
RTVSPropertyOp10
 70
     1
102
RTVSPropertyOp11
 70
     1
102
RTVSPropertyOp12
 70
     1
102
RTVSPropertyOp13
 70
     1
102
RTVSPropertyOp14
 70
     1
102
RTVSPropertyOp15
 70
     1
102
RTVSPropertyOp16
 70
     1
102
RTVSPropertyOp17
 70
     1
102
RTVSPropertyOp18
 70
     1
102
RTVSPropertyOp19
 70
     1
102
RTVSPropertyOp20
 70
     1
102
RTVSPropertyOp21
 70
     1
102
RTVSPropertyOp22
 70
     1
102
RTVSPropertyOp23
 70
     1
102
RTVSPropertyOp24
 70
     1
102
RTVSPropertyOp25
 70
     1
102
RTVSPropertyOp26
 70
     1
102
RTVSPropertyOp27
 70
     1
  0
XRECORD
  5
335
102
{ACAD_REACTORS
330
334
102
}
330
334
100
AcDbXrecord
280
     1
102
RTVSPropertyOp0
 70
     1
102
RTVSPropertyOp1
 70
     1
102
RTVSPropertyOp2
 70
     1
102
RTVSPropertyOp3
 70
     1
102
RTVSPropertyOp4
 70
     1
102
RTVSPropertyOp5
 70
     1
102
RTVSPropertyOp6
 70
     1
102
RTVSPropertyOp7
 70
     1
102
RTVSPropertyOp8
 70
     1
102
RTVSPropertyOp9
 70
     1
102
RTVSPropertyOp10
 70
     1
102
RTVSPropertyOp11
 70
     1
102
RTVSPropertyOp12
 70
     1
102
RTVSPropertyOp13
 70
     1
102
RTVSPropertyOp14
 70
     1
102
RTVSPropertyOp15
 70
     1
102
RTVSPropertyOp16
 70
     1
102
RTVSPropertyOp17
 70
     1
102
RTVSPropertyOp18
 70
     1
102
RTVSPropertyOp19
 70
     1
102
RTVSPropertyOp20
 70
     1
102
RTVSPropertyOp21
 70
     1
102
RTVSPropertyOp22
 70
     1
102
RTVSPropertyOp23
 70
     1
102
RTVSPropertyOp24
 70
     1
102
RTVSPropertyOp25
 70
     1
102
RTVSPropertyOp26
 70
     1
102
RTVSPropertyOp27
 70
     1
  0
ENDSEC
  0
EOF
